<?xml version="1.0" standalone="no"?>
<!DOCTYPE svg PUBLIC "-//W3C//DTD SVG 1.1//EN" "http://www.w3.org/Graphics/SVG/1.1/DTD/svg11.dtd" >
<svg xmlns="http://www.w3.org/2000/svg">
<metadata>Generated by IcoMoon</metadata>
<defs>
<font id="feelix-icons" horiz-adv-x="1024">
<font-face units-per-em="1024" ascent="960" descent="-64" />
<missing-glyph horiz-adv-x="1024" />
<glyph unicode="&#x20;" horiz-adv-x="512" d="" />
<glyph unicode="&#xe900;" glyph-name="chart" d="M68.523 75.802v780.134h-38.246v-815.014h19.123v-0.858h944.324v35.738zM138.893 446.165h152.785v-308.685h-152.785v308.685zM345.19 800.060h152.785v-662.575h-152.785v662.575zM757.811 676.894h152.785v-539.418h-152.785v539.418zM551.509 563.089h152.777v-425.6h-152.777v425.6z" />
<glyph unicode="&#xe901;" glyph-name="dashboard" d="M512.004 774.438c-267.456 0-484.267-216.811-484.267-484.267 0-59.298 10.679-116.1 30.182-168.61h908.151c19.507 52.51 30.187 109.308 30.187 168.61 0.004 267.452-216.802 484.267-484.254 484.267zM512.004 739.315c21.035 0 38.089-28.058 38.089-62.669s-17.054-62.669-38.089-62.669c-21.039 0-38.093 28.058-38.093 62.669s17.054 62.669 38.093 62.669zM282.795 688.405c18.219 10.517 47.014-5.252 64.324-35.226 17.301-29.973 16.567-62.801-1.651-73.323-18.223-10.517-47.019 5.252-64.329 35.23-17.301 29.978-16.563 62.801 1.655 73.318zM115.908 254.831c-34.598 0-62.669 17.050-62.66 38.093-0.009 21.035 28.049 38.089 62.669 38.097 34.603-0.009 62.669-17.054 62.669-38.089 0-21.052-28.058-38.101-62.677-38.101zM222.818 457.899c-10.526-18.219-43.354-18.957-73.327-1.651-29.969 17.301-45.751 46.101-35.226 64.316 10.517 18.219 43.341 18.953 73.318 1.655 29.965-17.306 45.751-46.101 35.234-64.32zM469.875 281.387c-76.847 78.519-223.77 251.371-209.754 265.092 14.016 13.717 183.659-136.887 260.51-215.411 76.843-78.524 26.091-128.196-50.756-49.681zM743.381 619.503c-17.301-29.965-46.101-45.743-64.316-35.217-18.219 10.509-18.957 43.332-1.66 73.318 17.31 29.965 46.11 45.751 64.324 35.234 18.227-10.526 18.961-43.345 1.651-73.335zM800.132 457.899c-10.526 18.219 5.248 47.014 35.226 64.324 29.965 17.297 62.801 16.567 73.318-1.651 10.526-18.223-5.248-47.019-35.234-64.333-29.969-17.297-62.793-16.555-73.31 1.66zM908.075 254.814c-34.598 0-62.669 17.058-62.66 38.093-0.009 21.035 28.049 38.097 62.669 38.106 34.603-0.009 62.669-17.062 62.669-38.097 0.004-21.043-28.058-38.093-62.677-38.101z" />
<glyph unicode="&#xe902;" glyph-name="gear" d="M950.347 365.34l-59.989 24.853c5.934 38.453 5.934 77.202 0.004 115.612l59.989 24.853c34.204 14.162 52.32 46.215 41.241 72.967l-30.428 73.447c-7.381 17.828-26.29 28.903-49.337 28.903-10.354 0-21.223-2.233-31.424-6.457l-59.989-24.85c-22.976 31.356-50.364 58.752-81.753 81.749l24.846 59.996c6.126 14.773 7.964 30.617 5.205 44.604-3.378 17.106-13.451 30.279-27.637 36.149l-73.447 30.421c-5.195 2.155-10.731 3.25-16.444 3.25-22.784 0-45.508-17.877-56.526-44.484l-24.85-60c-38.279 5.867-77.362 5.874-115.602 0.004l-24.853 60c-11.019 26.606-33.735 44.48-56.533 44.48-5.71 0-11.239-1.092-16.434-3.243l-73.458-30.428c-14.183-5.877-24.256-19.047-27.641-36.149-2.77-13.991-0.924-29.831 5.198-44.608l24.853-59.986c-31.36-22.98-58.748-50.375-81.746-81.756l-59.996 24.853c-10.197 4.224-21.063 6.46-31.42 6.46-23.044 0-41.952-11.068-49.333-28.892l-30.425-73.461c-5.877-14.18-3.687-30.62 6.012-45.102 7.936-11.854 20.444-21.749 35.221-27.868l59.996-24.853c-5.931-38.45-5.931-77.188-0.004-115.612l-59.996-24.853c-34.201-14.165-52.313-46.215-41.237-72.96l30.432-73.458c7.381-17.828 26.286-28.896 49.333-28.896 10.35 0 21.216 2.229 31.417 6.457l59.989 24.846c22.98-31.36 50.375-58.756 81.76-81.749l-24.85-59.993c-6.126-14.777-7.975-30.617-5.205-44.619 3.381-17.099 13.458-30.279 27.634-36.146l73.465-30.425c5.195-2.158 10.72-3.243 16.43-3.243 22.791 0 45.511 17.874 56.53 44.473l24.857 60.014c38.268-5.867 77.355-5.874 115.605-0.007l24.85-60c11.019-26.603 33.739-44.48 56.53-44.48 5.71 0 11.243 1.084 16.423 3.236l73.461 30.432c26.752 11.083 36.608 46.564 22.436 80.757l-24.846 59.993c31.353 22.98 58.756 50.375 81.742 81.749l60-24.846c10.194-4.228 21.067-6.457 31.42-6.457 23.051 0 41.956 11.076 49.34 28.896l30.421 73.458c5.877 14.172 3.687 30.617-6.005 45.099-7.94 11.854-20.455 21.749-35.232 27.868zM512 265.223c-100.786 0-182.78 81.991-182.78 182.777s81.995 182.78 182.78 182.78c100.786 0 182.77-81.995 182.77-182.78s-81.984-182.777-182.77-182.777z" />
<glyph unicode="&#xe903;" glyph-name="table-add-column" d="M245.632-32h-110.222c-50.972 0-92.444 41.468-92.444 92.444v775.111c0 50.972 41.472 92.444 92.444 92.444h110.222c50.972 0 92.444-41.472 92.444-92.444v-775.111c0-50.976-41.472-92.444-92.444-92.444zM135.41 885.333c-27.449 0-49.778-22.329-49.778-49.778v-775.111c0-27.449 22.329-49.778 49.778-49.778h110.222c27.449 0 49.778 22.329 49.778 49.778v775.111c0 27.449-22.329 49.778-49.778 49.778h-110.222zM735.705-32c-135.278 0-245.333 110.055-245.333 245.333s110.055 245.333 245.333 245.333 245.333-110.055 245.333-245.333-110.055-245.333-245.333-245.333zM735.705 416c-111.751 0-202.667-90.916-202.667-202.667s90.916-202.667 202.667-202.667 202.667 90.916 202.667 202.667-90.916 202.667-202.667 202.667zM877.038 192h-282.667c-11.78 0-21.333 9.554-21.333 21.333s9.554 21.333 21.333 21.333h282.667c11.78 0 21.333-9.554 21.333-21.333s-9.554-21.333-21.333-21.333zM735.705 50.667c-11.78 0-21.333 9.554-21.333 21.333v282.667c0 11.78 9.554 21.333 21.333 21.333s21.333-9.554 21.333-21.333v-282.667c0-11.78-9.554-21.333-21.333-21.333z" />
<glyph unicode="&#xe904;" glyph-name="search" d="M654.812 804.704c-137.714 137.717-361.796 137.717-499.516 0-137.714-137.714-137.714-361.799 0-499.513 131.925-131.925 343.093-137.451 481.685-16.622l293.422-293.419c9.515-9.515 24.935-9.518 34.446-0.004 9.518 9.515 9.518 24.939 0 34.45l-293.419 293.422c120.832 138.592 115.31 349.76-16.619 481.685zM620.363 339.637c-118.724-118.724-311.893-118.724-430.613 0s-118.724 311.893 0 430.613 311.897 118.724 430.617 0c118.716-118.716 118.716-311.89-0.004-430.613z" />
<glyph unicode="&#xe905;" glyph-name="setting" d="M390.61 209.639l359.765 359.762c63.712-19.381 133.415-2.35 181.010 45.248 50.965 50.965 66.891 127.289 40.59 194.446-0.011 0.018-0.025 0.036-0.025 0.057-0.32 0.786-0.668 1.554-1.077 2.293-0.057 0.11-0.124 0.217-0.192 0.324-0.341 0.597-0.697 1.177-1.095 1.739-0.135 0.199-0.284 0.391-0.423 0.58-0.348 0.462-0.718 0.91-1.099 1.34-0.181 0.199-0.356 0.398-0.53 0.59-0.42 0.444-0.864 0.864-1.323 1.269-0.156 0.132-0.295 0.27-0.448 0.398-1.255 1.052-2.635 1.959-4.121 2.702-0.153 0.075-0.316 0.149-0.473 0.22-0.583 0.277-1.18 0.523-1.792 0.74-0.21 0.075-0.412 0.153-0.626 0.224-0.633 0.206-1.269 0.38-1.938 0.53-0.114 0.025-0.224 0.075-0.352 0.096-0.043 0.007-0.075 0.007-0.114 0.014-0.796 0.164-1.589 0.281-2.382 0.352-0.224 0.018-0.43 0.018-0.651 0.025-0.59 0.032-1.177 0.050-1.764 0.032-0.277-0.007-0.558-0.025-0.828-0.043-0.562-0.032-1.116-0.092-1.685-0.171-0.231-0.036-0.469-0.064-0.704-0.103-1.582-0.284-3.14-0.747-4.615-1.383-0.185-0.075-0.352-0.164-0.53-0.238-0.555-0.26-1.113-0.544-1.653-0.853-0.21-0.117-0.409-0.235-0.612-0.359-0.519-0.32-1.013-0.665-1.515-1.031-0.181-0.132-0.37-0.256-0.533-0.398-0.651-0.516-1.269-1.049-1.86-1.639l-88.604-88.615-60.345 60.341 88.619 88.608c0.59 0.59 1.131 1.216 1.639 1.863 0.139 0.174 0.263 0.359 0.395 0.537 0.37 0.494 0.715 0.996 1.035 1.515 0.117 0.203 0.235 0.398 0.356 0.601 0.316 0.551 0.601 1.109 0.86 1.675 0.075 0.171 0.167 0.338 0.235 0.519 0.633 1.486 1.099 3.036 1.383 4.633 0.043 0.224 0.071 0.448 0.096 0.676 0.082 0.569 0.142 1.138 0.181 1.703 0.021 0.27 0.028 0.544 0.043 0.814 0.014 0.594 0 1.188-0.036 1.781-0.014 0.213-0.014 0.42-0.032 0.633-0.075 0.8-0.188 1.596-0.352 2.389-0.007 0.039-0.007 0.075-0.014 0.117-0.028 0.117-0.075 0.238-0.096 0.359-0.149 0.651-0.327 1.291-0.526 1.92-0.075 0.22-0.146 0.43-0.224 0.644-0.217 0.594-0.459 1.173-0.718 1.739-0.078 0.181-0.16 0.363-0.238 0.533-0.736 1.461-1.632 2.827-2.674 4.078-0.153 0.192-0.341 0.37-0.505 0.562-0.37 0.412-0.754 0.814-1.148 1.198-0.224 0.213-0.444 0.409-0.672 0.612-0.395 0.356-0.814 0.69-1.244 1.013-0.224 0.164-0.437 0.327-0.668 0.484-0.519 0.37-1.084 0.715-1.643 1.035-0.139 0.075-0.263 0.164-0.398 0.238-0.736 0.391-1.49 0.747-2.279 1.056-0.021 0.004-0.036 0.018-0.064 0.028-67.161 26.308-143.481 10.372-194.45-40.594-47.598-47.598-64.619-117.308-45.244-181.013l-359.751-359.772c-63.705 19.388-133.419 2.354-181.013-45.248-50.965-50.969-66.894-127.289-40.59-194.446 0.004-0.028 0.021-0.043 0.025-0.068 0.313-0.786 0.668-1.55 1.063-2.286 0.071-0.117 0.149-0.231 0.213-0.366 0.334-0.576 0.686-1.145 1.063-1.692 0.156-0.22 0.313-0.42 0.466-0.636 0.327-0.437 0.672-0.853 1.035-1.259 0.203-0.224 0.398-0.452 0.601-0.668 0.384-0.402 0.789-0.786 1.202-1.152 0.196-0.167 0.373-0.348 0.565-0.516 0.626-0.519 1.269-0.999 1.952-1.444 0.014-0.014 0.028-0.028 0.050-0.036 0.658-0.43 1.351-0.818 2.062-1.18 0.178-0.082 0.363-0.167 0.548-0.249 0.565-0.263 1.141-0.508 1.732-0.715 0.213-0.075 0.423-0.153 0.64-0.224 0.644-0.213 1.298-0.388 1.97-0.54 0.103-0.021 0.213-0.071 0.313-0.085 0.039-0.004 0.068-0.007 0.1-0.011 0.804-0.167 1.607-0.284 2.414-0.356 0.192-0.014 0.38-0.014 0.572-0.028 0.615-0.036 1.234-0.053 1.842-0.036 0.263 0.007 0.519 0.021 0.789 0.043 0.587 0.036 1.163 0.089 1.735 0.181 0.22 0.036 0.444 0.068 0.658 0.096 1.593 0.277 3.15 0.75 4.64 1.387 0.171 0.075 0.334 0.156 0.508 0.231 0.569 0.26 1.131 0.544 1.678 0.853 0.203 0.114 0.398 0.228 0.597 0.363 0.519 0.32 1.024 0.668 1.518 1.035 0.178 0.132 0.366 0.256 0.537 0.391 0.647 0.512 1.273 1.052 1.863 1.643l88.608 88.612 60.341-60.341-88.612-88.594c-0.59-0.587-1.131-1.216-1.643-1.856-0.139-0.174-0.26-0.356-0.391-0.533-0.366-0.494-0.715-0.992-1.031-1.515-0.128-0.203-0.238-0.391-0.359-0.612-0.309-0.533-0.594-1.095-0.857-1.668-0.075-0.171-0.167-0.345-0.242-0.519-0.633-1.486-1.095-3.036-1.38-4.636-0.043-0.224-0.071-0.452-0.1-0.668-0.082-0.569-0.149-1.138-0.178-1.714-0.018-0.263-0.028-0.523-0.036-0.804-0.018-0.612-0.004-1.216 0.036-1.817 0.011-0.203 0.004-0.395 0.021-0.594 0.071-0.811 0.181-1.611 0.348-2.421 0.011-0.028 0.007-0.071 0.014-0.089 0.014-0.082 0.046-0.156 0.071-0.228 0.185-0.846 0.427-1.668 0.708-2.464 0.064-0.167 0.11-0.341 0.174-0.501 0.334-0.882 0.718-1.735 1.156-2.567 0.050-0.078 0.103-0.174 0.149-0.26 0.402-0.715 0.853-1.408 1.333-2.076 0.132-0.185 0.256-0.363 0.398-0.526 0.562-0.729 1.156-1.44 1.806-2.098 1.536-1.54 3.31-2.841 5.269-3.854 0.039-0.021 0.082-0.036 0.117-0.060 0.594-0.306 1.212-0.587 1.845-0.828 0.025-0.014 0.053-0.021 0.075-0.043 67.157-26.297 143.481-10.368 194.446 40.597 47.591 47.605 64.622 117.319 45.241 181.024zM398.72 591.452l-112.014 112.011 17.145 17.145c9.881 9.881 9.877 25.959 0 35.84l-123.808 123.812c-9.881 9.881-25.963 9.881-35.844 0l-64.462-64.462c-9.881-9.881-9.881-25.959 0-35.84l123.808-123.808c9.881-9.881 25.959-9.881 35.844 0l17.145 17.145 112.011-112.011c8.331-8.331 21.842-8.327 30.169 0 8.334 8.331 8.331 21.835 0.007 30.169zM979.868 61.408c11.090 11.090 11.093 29.131 0.004 40.224l-286.578 286.581c-8.334 8.334-21.842 8.334-30.169 0l-91.342-91.346c-8.334-8.327-8.334-21.835 0-30.158l286.581-286.585c11.097-11.093 29.138-11.093 40.224 0l81.28 81.284z" />
<glyph unicode="&#xe906;" glyph-name="tshort" d="M998.578 611.083l-209.756 209.756c-10.055 10.059-22.859 16.636-37.035 19.033l-0.896 0.181c-0.519 0.117-0.903 0.224-1.28 0.327-1.728 0.373-3.726 0.601-5.664 0.601h-121.415c-3.054-20.448-11.659-39.524-25.049-55.428-21.337-25.355-52.494-39.897-85.476-39.897-32.985 0-64.142 14.542-85.483 39.897-13.387 15.911-21.995 34.987-25.045 55.428h-121.262c-1.888 0-3.854-0.22-5.842-0.644l-1.387-0.316c-14.656-2.386-27.616-8.996-37.803-19.186l-209.764-209.764c-26.805-26.805-26.802-70.436 0.007-97.252l53.042-53.031c12.992-12.985 30.258-20.132 48.615-20.132 18.372 0 35.641 7.154 48.629 20.139l76.658 76.654v-454.585c0-15.353 12.491-27.847 27.84-27.847h463.723c15.36 0 27.861 12.494 27.861 27.847v454.428l76.48-76.501c12.985-12.985 30.258-20.139 48.629-20.139 18.375 0 35.641 7.154 48.636 20.139l53.035 53.028c26.805 26.82 26.805 70.446 0 97.262z" />
<glyph unicode="&#xe907;" glyph-name="menu-down" d="M267.513 603.73c-11.481 16.917-4.146 30.756 16.299 30.756h191.012c20.444 0 53.899 0 74.347 0h191.012c20.444 0 27.78-13.842 16.302-30.756l-223.616-329.525c-11.481-16.924-30.268-16.924-41.746 0l-223.609 329.525z" />
<glyph unicode="&#xe908;" glyph-name="upload" d="M775.957 662.777l-238.798 238.798c-0.007 0.004-0.011 0.011-0.018 0.014-0.224 0.224-0.466 0.412-0.693 0.629-0.619 0.587-1.237 1.17-1.892 1.71-0.494 0.402-1.010 0.761-1.522 1.134-0.423 0.313-0.832 0.644-1.269 0.935-0.565 0.38-1.152 0.711-1.735 1.056-0.416 0.245-0.818 0.508-1.248 0.736-0.583 0.313-1.188 0.583-1.785 0.86-0.455 0.213-0.9 0.437-1.365 0.633-0.587 0.242-1.184 0.444-1.781 0.654-0.501 0.178-0.988 0.37-1.5 0.523-0.612 0.185-1.234 0.324-1.852 0.476-0.508 0.124-1.006 0.27-1.525 0.37-0.736 0.149-1.479 0.238-2.222 0.341-0.405 0.053-0.807 0.135-1.22 0.178-2.35 0.231-4.718 0.231-7.068 0-0.412-0.043-0.814-0.124-1.22-0.178-0.743-0.1-1.486-0.192-2.222-0.341-0.519-0.1-1.017-0.245-1.525-0.37-0.619-0.153-1.241-0.292-1.852-0.476-0.512-0.156-0.999-0.348-1.5-0.523-0.597-0.21-1.195-0.409-1.781-0.654-0.466-0.196-0.91-0.42-1.365-0.633-0.597-0.277-1.202-0.548-1.785-0.86-0.427-0.228-0.828-0.491-1.248-0.736-0.583-0.345-1.17-0.672-1.735-1.056-0.437-0.292-0.846-0.622-1.269-0.935-0.512-0.373-1.028-0.732-1.522-1.134-0.658-0.54-1.273-1.124-1.892-1.71-0.228-0.217-0.473-0.405-0.693-0.629l-238.809-238.812c-13.884-13.884-13.884-36.398 0-50.286 6.944-6.944 16.043-10.414 25.141-10.414s18.201 3.47 25.141 10.414l178.119 178.119v-586.162c0-19.634 15.922-35.556 35.556-35.556s35.556 15.922 35.556 35.556v586.158l178.119-178.116c6.944-6.944 16.043-10.414 25.141-10.414s18.197 3.474 25.141 10.414c13.888 13.892 13.888 36.402 0 50.286zM928 343.111c-19.637 0-35.556-15.922-35.556-35.556v-252.444h-760.889v252.444c0 19.634-15.918 35.556-35.556 35.556s-35.556-15.922-35.556-35.556v-323.556h903.111v323.556c0 19.634-15.918 35.556-35.556 35.556z" />
<glyph unicode="&#xe909;" glyph-name="logout" d="M35.876 434.574c-0.089 0.117-0.181 0.235-0.27 0.356-0.224 0.284-0.43 0.569-0.64 0.86-0.167 0.242-0.334 0.501-0.494 0.75-0.203 0.313-0.395 0.626-0.576 0.946-0.167 0.306-0.327 0.612-0.487 0.917-0.089 0.188-0.203 0.37-0.292 0.562-0.050 0.117-0.089 0.235-0.146 0.356-0.153 0.334-0.284 0.672-0.416 1.020-0.071 0.174-0.153 0.348-0.217 0.519-0.050 0.153-0.096 0.306-0.146 0.459-0.103 0.327-0.196 0.654-0.284 0.978-0.057 0.181-0.117 0.356-0.16 0.533-0.050 0.188-0.082 0.373-0.124 0.562-0.064 0.284-0.11 0.583-0.167 0.875-0.036 0.203-0.082 0.395-0.11 0.597-0.036 0.217-0.057 0.43-0.075 0.654-0.028 0.242-0.050 0.494-0.071 0.75-0.021 0.224-0.050 0.452-0.064 0.679-0.007 0.235-0.007 0.473-0.007 0.708-0.007 0.11-0.021 0.228-0.021 0.341 0 0.117 0.014 0.228 0.021 0.348 0 0.235 0 0.473 0.007 0.708 0.014 0.228 0.043 0.452 0.064 0.679 0.021 0.249 0.043 0.501 0.071 0.75 0.021 0.217 0.043 0.437 0.075 0.654 0.028 0.203 0.075 0.395 0.11 0.597 0.057 0.292 0.103 0.583 0.167 0.875 0.043 0.188 0.075 0.373 0.124 0.562 0.043 0.181 0.103 0.356 0.16 0.533 0.089 0.327 0.181 0.654 0.284 0.971 0.050 0.153 0.096 0.306 0.146 0.459 0.064 0.181 0.146 0.348 0.217 0.526 0.132 0.341 0.263 0.686 0.416 1.020 0.057 0.117 0.096 0.235 0.146 0.356 0.089 0.188 0.203 0.37 0.292 0.555 0.16 0.313 0.32 0.619 0.487 0.917 0.181 0.32 0.373 0.633 0.576 0.946 0.16 0.256 0.327 0.508 0.494 0.757 0.117 0.167 0.228 0.341 0.356 0.508 0.089 0.124 0.196 0.235 0.292 0.363 0.028 0.036 0.057 0.071 0.082 0.096 0.174 0.224 0.341 0.437 0.519 0.647 0.146 0.174 0.284 0.348 0.43 0.516 0.146 0.153 0.299 0.299 0.444 0.452 0.181 0.188 0.37 0.373 0.562 0.562 0.153 0.146 0.306 0.306 0.466 0.452s0.327 0.277 0.487 0.416c0.224 0.188 0.452 0.37 0.679 0.548 0.153 0.117 0.292 0.249 0.444 0.363 0.16 0.117 0.327 0.224 0.487 0.334 0.263 0.188 0.533 0.363 0.814 0.533 0.196 0.124 0.38 0.256 0.576 0.373l218.023 130.148c10.116 6.041 23.211 2.738 29.255-7.381 6.037-10.119 2.734-23.214-7.385-29.252l-151.694-90.556h466.642c11.78 0 21.333-9.55 21.333-21.333 0-11.78-9.554-21.333-21.333-21.333h-466.638l151.691-90.546c10.119-6.041 13.422-19.14 7.385-29.259-3.993-6.688-11.076-10.404-18.34-10.404-3.719 0-7.484 0.971-10.912 3.022l-218.116 130.204c-0.146 0.082-0.27 0.181-0.409 0.27-0.341 0.217-0.672 0.43-0.992 0.661-0.132 0.089-0.27 0.174-0.402 0.27-0.146 0.103-0.277 0.228-0.423 0.348-0.263 0.21-0.526 0.423-0.786 0.647-0.224 0.196-0.452 0.388-0.672 0.59-0.103 0.103-0.217 0.21-0.327 0.313-0.153 0.16-0.306 0.32-0.459 0.487-0.284 0.292-0.562 0.597-0.825 0.903-0.117 0.135-0.235 0.263-0.345 0.402zM885.013 949.333h-495.364c-33.845 0-61.39-27.42-61.628-61.209h-0.021v-239.972c0-11.090 9.070-20.16 20.156-20.16h2.354c11.086 0 20.156 9.070 20.156 20.16v239.534c0 10.464 8.516 18.98 18.983 18.98h495.364c10.471 0 18.987-8.516 18.987-18.98v-879.374c0-10.464-8.516-18.98-18.987-18.98h-495.364c-10.468 0-18.983 8.516-18.983 18.98v240.395c0 11.083-9.070 20.153-20.156 20.153h-2.354c-11.086 0-20.156-9.070-20.156-20.153v-240.395c0-33.995 27.655-61.646 61.65-61.646h495.364c33.995 0 61.653 27.652 61.653 61.646v879.374c0 33.991-27.659 61.646-61.653 61.646z" />
<glyph unicode="&#xe90a;" glyph-name="login" d="M659.236 434.574c0.089 0.117 0.181 0.235 0.27 0.356 0.224 0.284 0.43 0.569 0.64 0.86 0.167 0.242 0.334 0.501 0.494 0.75 0.203 0.313 0.395 0.626 0.576 0.946 0.167 0.306 0.327 0.612 0.487 0.917 0.089 0.188 0.203 0.37 0.292 0.562 0.050 0.117 0.089 0.235 0.146 0.356 0.153 0.334 0.284 0.672 0.416 1.020 0.071 0.174 0.153 0.348 0.217 0.519 0.050 0.153 0.096 0.306 0.146 0.459 0.103 0.327 0.196 0.654 0.284 0.978 0.057 0.181 0.117 0.356 0.16 0.533 0.050 0.188 0.082 0.373 0.124 0.562 0.064 0.284 0.11 0.583 0.167 0.875 0.036 0.203 0.082 0.395 0.11 0.597 0.036 0.217 0.057 0.43 0.075 0.654 0.028 0.242 0.050 0.494 0.071 0.75 0.021 0.224 0.050 0.452 0.064 0.679 0.007 0.235 0.007 0.473 0.007 0.708 0.007 0.11 0.021 0.228 0.021 0.341 0 0.117-0.014 0.228-0.021 0.348 0 0.235 0 0.473-0.007 0.708-0.014 0.228-0.043 0.452-0.064 0.679-0.021 0.249-0.043 0.501-0.071 0.75-0.021 0.217-0.043 0.437-0.075 0.654-0.028 0.203-0.075 0.395-0.11 0.597-0.057 0.292-0.103 0.583-0.167 0.875-0.043 0.188-0.075 0.373-0.124 0.562-0.043 0.181-0.103 0.356-0.16 0.533-0.089 0.327-0.181 0.654-0.284 0.971-0.050 0.153-0.096 0.306-0.146 0.459-0.064 0.181-0.146 0.348-0.217 0.526-0.132 0.341-0.263 0.686-0.416 1.020-0.057 0.117-0.096 0.235-0.146 0.356-0.089 0.188-0.203 0.37-0.292 0.555-0.16 0.313-0.32 0.619-0.487 0.917-0.181 0.32-0.373 0.633-0.576 0.946-0.16 0.256-0.327 0.508-0.494 0.757-0.117 0.167-0.228 0.341-0.356 0.508-0.089 0.124-0.196 0.235-0.292 0.363-0.028 0.036-0.057 0.071-0.082 0.096-0.174 0.224-0.341 0.437-0.519 0.647-0.146 0.174-0.284 0.348-0.43 0.516-0.146 0.153-0.299 0.299-0.444 0.452-0.181 0.188-0.37 0.373-0.562 0.562-0.153 0.146-0.306 0.306-0.466 0.452s-0.327 0.277-0.487 0.416c-0.224 0.188-0.452 0.37-0.679 0.548-0.153 0.117-0.292 0.249-0.444 0.363-0.16 0.117-0.327 0.224-0.487 0.334-0.263 0.188-0.533 0.363-0.814 0.533-0.196 0.124-0.38 0.256-0.576 0.373l-218.023 130.148c-10.116 6.041-23.211 2.738-29.255-7.381-6.037-10.119-2.734-23.214 7.385-29.252l151.694-90.556h-466.642c-11.78 0-21.333-9.55-21.333-21.333 0-11.78 9.554-21.333 21.333-21.333h466.638l-151.691-90.546c-10.119-6.041-13.422-19.14-7.385-29.259 3.993-6.688 11.076-10.404 18.34-10.404 3.719 0 7.484 0.971 10.912 3.022l218.116 130.204c0.146 0.082 0.27 0.181 0.409 0.27 0.341 0.217 0.672 0.43 0.992 0.661 0.132 0.089 0.27 0.174 0.402 0.27 0.146 0.103 0.277 0.228 0.423 0.348 0.263 0.21 0.526 0.423 0.786 0.647 0.224 0.196 0.452 0.388 0.672 0.59 0.103 0.103 0.217 0.21 0.327 0.313 0.153 0.16 0.306 0.32 0.459 0.487 0.284 0.292 0.562 0.597 0.825 0.903 0.117 0.135 0.235 0.263 0.345 0.402zM885.013 949.333h-495.364c-33.845 0-61.39-27.42-61.628-61.209h-0.021v-239.972c0-11.090 9.070-20.16 20.156-20.16h2.354c11.086 0 20.156 9.070 20.156 20.16v239.534c0 10.464 8.516 18.98 18.983 18.98h495.364c10.471 0 18.987-8.516 18.987-18.98v-879.374c0-10.464-8.516-18.98-18.987-18.98h-495.364c-10.468 0-18.983 8.516-18.983 18.98v240.395c0 11.083-9.070 20.153-20.156 20.153h-2.354c-11.086 0-20.156-9.070-20.156-20.153v-240.395c0-33.995 27.655-61.646 61.65-61.646h495.364c33.995 0 61.653 27.652 61.653 61.646v879.374c0 33.991-27.659 61.646-61.653 61.646z" />
<glyph unicode="&#xe90b;" glyph-name="table-add-column-right" d="M685.927 60.444v775.111c0 50.972 41.468 92.444 92.444 92.444h110.222c50.976 0 92.444-41.472 92.444-92.444v-775.111c0-50.976-41.468-92.444-92.444-92.444h-110.222c-50.976 0-92.444 41.468-92.444 92.444zM778.372 885.333c-27.449 0-49.778-22.329-49.778-49.778v-775.111c0-27.449 22.329-49.778 49.778-49.778h110.222c27.449 0 49.778 22.329 49.778 49.778v775.111c0 27.449-22.329 49.778-49.778 49.778h-110.222zM42.965 213.333c0 135.278 110.055 245.333 245.333 245.333s245.333-110.055 245.333-245.333-110.055-245.333-245.333-245.333-245.333 110.055-245.333 245.333zM85.632 213.333c0-111.751 90.916-202.667 202.667-202.667s202.667 90.916 202.667 202.667-90.916 202.667-202.667 202.667-202.667-90.916-202.667-202.667zM146.965 192h282.667c11.78 0 21.333 9.554 21.333 21.333s-9.554 21.333-21.333 21.333h-282.667c-11.78 0-21.333-9.554-21.333-21.333s9.554-21.333 21.333-21.333zM288.299 50.667c11.78 0 21.333 9.554 21.333 21.333v282.667c0 11.78-9.554 21.333-21.333 21.333s-21.333-9.554-21.333-21.333v-282.667c0-11.78 9.554-21.333 21.333-21.333z" />
<glyph unicode="&#xe90c;" glyph-name="nfc" d="M617.6 402.14c-58.315 58.318-152.868 58.325-211.189 0.007-0.004 0-0.007-0.007-0.011-0.007l-60.444 60.444c91.584 91.701 240.164 91.797 331.872 0.22 0.071-0.075 0.146-0.149 0.22-0.22l-60.448-60.444zM270.578 537.959l-60.444 60.444c166.741 166.652 436.992 166.652 603.733 0l-60.444-60.444c-133.394 133.188-349.451 133.188-482.844 0zM889.244 673.781c-100.978 100.622-234.667 156.085-377.244 156.085s-276.267-55.467-376.889-156.444l-60.444 60.444c116.622 116.978 272 181.333 437.333 181.333s320.711-64.356 437.333-181.333l-60.089-60.085zM118.4 281.248h42.311c2.844 0 5.333 0 7.467-1.419 2.844-1.067 4.978-2.489 6.4-4.978l4.978-6.4 14.578-23.467c18.983-31.492 38.304-62.784 57.956-93.867l13.867-22.4c7.15-11.399 14.862-22.439 23.111-33.067 1.067-0.711 1.778-0.711 2.489 0 2.133 0.356 2.844 1.778 2.844 3.556l1.067 6.4v162.844c0 3.556 0.711 7.111 2.489 8.889 1.067 2.133 3.2 3.2 5.333 3.556h40.178c1.778 0 3.556 0 5.333-0.711 3.556-1.067 5.689-3.556 6.044-7.111v-264.889l0.356-9.244c0-2.844 0-5.333-1.422-7.111-0.843-1.312-2.091-2.311-3.556-2.844l-5.689-1.422h-44.444c-2.489 0-4.267 0.356-6.044 1.067-2.844 1.422-5.333 3.556-7.111 5.692-7.108 10.048-13.636 20.494-19.556 31.289l-61.511 98.844c-8.9 14.837-18.027 29.536-27.378 44.089-1.778 2.844-4.267 4.263-7.111 4.263-2.489-2.133-3.556-4.263-3.556-6.752v-157.156c0-1.422 0-2.844-0.711-3.911v-4.626c0-4.622-0.711-7.467-2.133-9.596-1.422-1.422-3.2-2.489-5.689-2.848l-7.822-0.356h-32c-2.133 0-3.911 0-5.689 0.711-3.556 1.419-5.333 3.911-6.044 7.467l-0.356 12.444v260.622c0 3.556 0.356 6.044 1.422 7.822s3.2 3.556 6.044 4.267h3.556v0.352zM423.467 280.892h177.778c3.2 0 6.044 0 8.889-0.711 2.489 0 4.626-1.067 6.044-2.844 1.067-1.422 1.778-3.2 2.489-5.333l0.356-7.822c0.252-5.564 0.252-11.143 0-16.711v-11.374l-1.778-3.556c-0.356-1.422-1.067-2.489-2.133-3.556-2.489-1.422-6.044-2.137-11.378-2.137h-93.511l-16 0.359c-6.044 0-10.667-0.359-13.156-2.137-1.778-1.067-3.196-3.196-4.267-6.044l-0.708-7.467v-42.667l2.133-6.044c0.711-1.778 2.133-2.844 4.267-3.556 1.419-0.711 3.196-1.067 4.974-1.067h79.644c5.447-0.284 10.908-0.284 16.356 0l7.822-0.711c1.781-0.164 3.495-0.775 4.978-1.778 2.844-1.778 4.267-5.333 3.911-10.667-0.366-9.71-0.484-19.435-0.356-29.156-1.067-3.196-2.844-5.333-4.622-6.4-2.137-1.067-5.692-1.419-11.026-1.419h-96.711c-4.974-0.359-8.178-2.137-9.596-5.692l-0.711-2.844-0.359-2.844v-93.156c0-5.689 0-9.956-1.778-12.444-0.708-1.422-1.778-2.133-3.196-2.489l-4.267-1.419c-1.778-0.711-3.556-0.711-6.044-0.359h-30.578l-8.533 0.359c-2.35 0.1-4.601 0.974-6.4 2.485-1.778 1.422-2.844 3.556-2.844 6.404v255.641l-0.359 13.511c0 4.978 0 8.889 1.778 10.667 1.070 2.137 3.2 3.556 6.044 4.267l1.778 0.359h1.422l-0.352 0.352zM783.289 288.359c51.996 5.099 101.518-23.3 123.378-70.752 2.912-7.406 5.287-15.012 7.111-22.756 0.356-2.489 0-4.622-0.711-7.111-0.356-1.419-1.419-2.489-2.844-2.844l-5.333-1.422h-3.556c-1.714-0.572-3.527-0.814-5.333-0.708-4.967 0.402-9.966 0.402-14.933 0-6.29-0.26-12.59-0.021-18.844 0.708-2.844 0.711-4.978 1.070-6.4 2.137-2.137 1.778-3.556 4.267-4.978 7.822-4.644 12.597-13.412 23.25-24.889 30.222-5.689 3.556-12.085 6.4-19.196 8.53-13.785 3.787-28.38 3.417-41.959-1.067l-5.333-1.778c-18.844-8.178-32-21.333-39.819-39.822l-3.556-10.308-3.556-11.026c-0.676-5.358-1.508-10.692-2.489-16 0-1.778 0-3.556-0.711-5.333-0.356-2.489-0.711-4.622-0.356-7.111 0.242-4.38 0.242-8.775 0-13.156v-3.556c0.708-1.778 0.708-2.844 0.708-4.263 0-1.422 0-2.848 0.711-4.267 1.227-7.644 2.766-15.239 4.622-22.756 3.556-11.378 8.533-21.333 14.581-29.511 6.044-7.822 14.222-14.578 23.822-19.911l9.596-3.556c4.853-1.216 9.714-2.4 14.581-3.556h7.467c1.067-0.711 2.844-1.070 5.333-0.711l5.333 0.356 3.556 0.359 9.248 1.778c9.415 2.229 18.034 7.029 24.889 13.863 4.597 4.619 8.654 9.746 12.085 15.289 1.778 2.848 3.2 6.044 4.267 9.248l3.556 9.956 2.489 8.178c0.711 2.489 2.489 4.267 5.333 5.692 1.778 0.708 3.556 1.067 6.4 1.067h39.822c2.489 0 4.622-0.711 6.4-1.778 1.778-1.422 2.844-3.556 2.844-6.756 0-2.844 0-5.689-1.067-8.53l-2.489-11.026-3.556-12.085-4.974-11.026-3.556-6.4c-18.791-33.835-52.889-56.388-91.378-60.444l-3.556-0.356c-3.815-0.050-7.623-0.402-11.378-1.070h-13.867c-2.485 0-4.974 0.359-7.111 1.070-1.298 0.181-2.61 0.181-3.911 0l-6.044 1.067-6.044 0.711c-2.844 1.067-5.333 1.778-8.178 2.133-7.755 1.7-15.275 4.327-22.4 7.822-31.968 13.188-57.148 38.884-69.689 71.111l-3.915 12.8c-1.461 6.446-3.122 12.85-4.974 19.2l-1.422 7.822c-0.263 3.833-0.86 7.641-1.778 11.374v11.026c-0.7 1.938-1.063 3.982-1.067 6.044 0 2.844 0 4.974 0.711 6.4v8.53c0.708 2.137 1.067 4.626 1.067 7.111 0.974 18.304 5.696 36.217 13.863 52.626l4.978 9.956c6.556 11.122 14.304 21.49 23.111 30.933 15.812 16.313 35.698 28.096 57.6 34.133 10.99 2.617 22.162 4.398 33.419 5.333h4.267v0.341z" />
<glyph unicode="&#xe90d;" glyph-name="menu-up" d="M756.484 292.27c11.481-16.917 4.146-30.756-16.299-30.756h-191.012c-20.441 0-53.899 0-74.347 0h-191.012c-20.444 0-27.78 13.842-16.302 30.756l223.616 329.525c11.481 16.924 30.268 16.924 41.746 0l223.609-329.525z" />
<glyph unicode="&#xe90e;" glyph-name="download" d="M248.043 418.116l238.802-238.798c0.007-0.004 0.011-0.011 0.018-0.014 0.224-0.224 0.466-0.412 0.693-0.629 0.619-0.587 1.237-1.17 1.892-1.71 0.494-0.402 1.010-0.761 1.522-1.134 0.423-0.313 0.832-0.644 1.269-0.935 0.565-0.38 1.152-0.711 1.735-1.056 0.416-0.245 0.818-0.508 1.248-0.736 0.583-0.313 1.188-0.583 1.785-0.86 0.455-0.213 0.9-0.437 1.365-0.633 0.587-0.242 1.184-0.444 1.781-0.654 0.501-0.178 0.988-0.37 1.5-0.523 0.612-0.185 1.234-0.324 1.852-0.476 0.508-0.124 1.006-0.27 1.525-0.37 0.736-0.149 1.479-0.238 2.222-0.341 0.405-0.053 0.807-0.135 1.22-0.178 2.35-0.231 4.718-0.231 7.068 0 0.412 0.043 0.814 0.124 1.22 0.178 0.743 0.1 1.486 0.192 2.222 0.341 0.519 0.1 1.017 0.245 1.525 0.37 0.619 0.153 1.241 0.292 1.852 0.476 0.512 0.156 0.999 0.348 1.5 0.523 0.597 0.21 1.195 0.409 1.781 0.654 0.466 0.196 0.91 0.42 1.365 0.633 0.597 0.277 1.202 0.548 1.785 0.86 0.427 0.228 0.828 0.491 1.248 0.736 0.583 0.345 1.17 0.672 1.735 1.056 0.437 0.292 0.846 0.622 1.269 0.935 0.512 0.373 1.028 0.732 1.522 1.134 0.658 0.54 1.273 1.124 1.892 1.71 0.228 0.217 0.473 0.405 0.693 0.629l238.812 238.812c13.884 13.884 13.884 36.402 0 50.286-6.94 6.944-16.043 10.414-25.141 10.414s-18.197-3.47-25.141-10.414l-178.116-178.119v586.162c0 19.634-15.922 35.556-35.556 35.556s-35.556-15.922-35.556-35.556v-586.162l-178.119 178.116c-6.944 6.944-16.043 10.414-25.141 10.414s-18.197-3.474-25.141-10.414c-13.895-13.884-13.895-36.398-0.011-50.283zM928 343.111c-19.637 0-35.556-15.922-35.556-35.556v-252.444h-760.889v252.444c0 19.634-15.918 35.556-35.556 35.556s-35.556-15.922-35.556-35.556v-323.556h903.111v323.556c0 19.634-15.918 35.556-35.556 35.556z" />
<glyph unicode="&#xe90f;" glyph-name="clear" d="M861.468 163.9l-284.1 284.1 284.1 284.1c18.048 18.052 18.048 47.317 0 65.369-18.052 18.052-47.321 18.052-65.369 0l-284.1-284.1-284.1 284.1c-18.052 18.052-47.317 18.052-65.369 0s-18.052-47.317 0-65.369l284.1-284.1-284.1-284.1c-18.052-18.048-18.052-47.317 0-65.369 18.052-18.048 47.317-18.048 65.369 0l284.1 284.1 284.1-284.1c18.048-18.048 47.317-18.048 65.369 0 18.048 18.052 18.048 47.321 0 65.369z" />
<glyph unicode="&#xe910;" glyph-name="checkbox" d="M947.296 787.289c-16.953 16.946-44.43 16.946-61.372 0l-416.306-395.285-225.17 211.168c-16.949 16.953-44.423 16.949-61.372 0-16.949-16.953-16.949-44.434 0-61.376l245.497-306.869c46.286-46.336 89.913 0.85 89.106 0l429.621 490.987c16.935 16.953 16.935 44.43-0.004 61.376zM706.969 110.556c0-3.417-2.777-6.197-6.194-6.197h-555.492c-3.417 0-6.197 2.78-6.197 6.197v577.383c0 3.413 2.78 6.194 6.197 6.194h555.488c1.109 0 2.137-0.316 3.036-0.828l58.521 48.889c-12.505 14.837-31.193 24.299-52.071 24.299h-574.457c-37.554 0-68.107-30.553-68.107-68.107v-598.279c0-37.557 30.553-68.11 68.107-68.11h574.457c37.554 0 68.103 30.556 68.103 68.11v322.564l-71.396-90.396v-221.717z" />
<glyph unicode="&#xe911;" glyph-name="bar" d="M960 494.222h-896c-25.529 0-46.222-20.693-46.222-46.222s20.693-46.222 46.222-46.222h896c25.529 0 46.222 20.693 46.222 46.222s-20.693 46.222-46.222 46.222z" />
<glyph unicode="&#xe912;" glyph-name="circle-arrow-down-outline" d="M512.004 917.333c258.791 0 469.333-210.542 469.333-469.333 0-258.795-210.542-469.333-469.333-469.333-258.795 0-469.333 210.542-469.333 469.333-0.004 258.791 210.539 469.333 469.333 469.333zM512.004 21.333c235.264 0 426.667 191.396 426.667 426.667 0 235.264-191.403 426.667-426.667 426.667s-426.667-191.403-426.667-426.667c-0.004-235.264 191.403-426.667 426.667-426.667zM272.917 400.917l223.993-223.993c1.003-0.999 2.108-1.902 3.292-2.688 0.075-0.057 0.156-0.096 0.231-0.146 1.092-0.7 2.244-1.319 3.46-1.82 0.089-0.036 0.181-0.064 0.27-0.096 1.191-0.473 2.428-0.846 3.712-1.099 0.064-0.014 0.128-0.021 0.192-0.036 1.276-0.235 2.592-0.373 3.936-0.373s2.66 0.139 3.936 0.373c0.064 0.014 0.128 0.021 0.192 0.036 1.284 0.249 2.521 0.626 3.712 1.099 0.089 0.036 0.181 0.064 0.27 0.096 1.216 0.501 2.368 1.116 3.46 1.82 0.075 0.050 0.156 0.089 0.231 0.146 1.184 0.786 2.29 1.689 3.292 2.688l223.989 223.986c8.334 8.334 8.334 21.842 0 30.172-4.164 4.167-9.625 6.251-15.083 6.251-5.461 0-10.919-2.084-15.086-6.251l-187.58-187.58v460.498c0 11.78-9.554 21.333-21.333 21.333s-21.333-9.554-21.333-21.333v-460.498l-187.584 187.58c-4.164 4.167-9.625 6.251-15.083 6.251s-10.919-2.084-15.083-6.251c-8.334-8.331-8.334-21.838-0.004-30.165z" />
<glyph unicode="&#xe913;" glyph-name="analyze" d="M801.092 115.41h-698.268c-48.085 0-87.207 39.125-87.207 87.207v490.763c0 48.085 39.122 87.207 87.207 87.207h598.137c11.78 0 21.333-9.554 21.333-21.333s-9.554-21.333-21.333-21.333h-598.137c-24.558 0-44.54-19.979-44.54-44.54v-490.763c0-24.555 19.982-44.54 44.54-44.54h698.265c24.558 0 44.54 19.986 44.54 44.54v257.831c0 11.78 9.554 21.333 21.333 21.333s21.333-9.554 21.333-21.333v-257.831c0.004-48.082-39.118-87.207-87.204-87.207zM982.023 766.66l-136.782-36.64c-18.891-5.060-23.033-20.516-9.202-34.34l34.99-34.994-269.668-269.668-217.319 217.319c-8.331 8.331-21.842 8.331-30.169 0l-232.405-232.405c-8.331-8.331-8.331-21.838 0-30.165 4.164-4.167 9.625-6.251 15.086-6.251s10.919 2.084 15.086 6.251l217.319 217.316 217.319-217.316c4.164-4.167 9.625-6.251 15.086-6.251s10.919 2.084 15.086 6.251l284.75 284.754 34.994-34.994c13.831-13.831 29.28-9.689 34.34 9.202l36.636 136.782c5.056 18.891-6.258 30.204-25.148 25.148z" />
<glyph unicode="&#xe914;" glyph-name="refresh" d="M51.62 391.975h88.174c0-199.502 162.304-361.803 361.806-361.803 107.492 0 208.715 47.346 277.714 129.902 8.814 10.549 7.41 26.244-3.136 35.054s-26.244 7.41-35.058-3.132c-59.513-71.207-146.82-112.050-239.52-112.050-172.057 0-312.028 139.972-312.028 312.021h88.178c23.467 0 31.364 15.513 17.54 34.478l-105.472 144.747c-13.824 18.965-36.43 18.965-50.258 0l-105.476-144.747c-13.828-18.962-5.931-34.475 17.536-34.471zM247.822 700.864c10.546-8.814 26.244-7.406 35.058 3.136 59.516 71.211 146.82 112.050 239.52 112.050 172.050 0 312.028-139.972 312.028-312.021-13.543 0-88.181 0-88.181 0-23.467 0-31.36-15.52-17.54-34.482l105.479-144.747c13.82-18.965 36.434-18.965 50.254 0l105.476 144.743c13.824 18.965 5.927 34.485-17.54 34.485 0 0-74.631 0-88.174 0 0 199.499-162.304 361.799-361.806 361.799-107.492 0-208.715-47.346-277.714-129.902-8.811-10.549-7.406-26.244 3.14-35.061z" />
<glyph unicode="&#xe915;" glyph-name="angle-left" d="M767.812 801.745c9.408 9.408 9.408 24.802 0 34.21l-53.282 53.282c-9.408 9.408-24.802 9.408-34.21 0l-336.64-336.64c-9.408-9.408-17.105-17.105-17.105-17.105s-7.697-7.697-17.105-17.101l-53.282-53.286c-9.408-9.408-9.408-24.802 0-34.21l53.282-53.282c9.408-9.408 24.802-24.802 34.21-34.21l336.64-336.636c9.408-9.408 24.802-9.408 34.21 0l53.282 53.282c9.408 9.408 9.408 24.802 0 34.21l-336.64 336.636c-9.408 9.408-9.408 24.802 0 34.21l336.64 336.64z" />
<glyph unicode="&#xe916;" glyph-name="angle-right" d="M256.188 801.745c-9.408 9.408-9.408 24.802 0 34.21l53.282 53.282c9.408 9.408 24.802 9.408 34.21 0l336.631-336.64c9.408-9.408 17.105-17.105 17.105-17.105 0.004 0 7.701-7.697 17.109-17.101l53.282-53.286c9.408-9.408 9.408-24.802 0-34.21l-53.282-53.282c-9.408-9.408-24.802-24.802-34.21-34.21l-336.636-336.636c-9.408-9.408-24.802-9.408-34.21 0l-53.282 53.282c-9.408 9.408-9.408 24.802 0 34.21l336.631 336.636c9.408 9.408 9.408 24.802 0 34.21l-336.631 336.64z" />
<glyph unicode="&#xe917;" glyph-name="tag" d="M943.417 518.919c4.203 5.134 6.734 11.698 6.734 18.852l-0.004 318.599c0.004 16.441-13.326 29.774-29.771 29.778l-318.599-0.004c-7.154 0.004-13.717-2.521-18.848-6.731-3.524-1.852-6.837-4.263-9.803-7.225l-487.428-487.424c-15.79-15.787-15.79-41.394 0-57.18l305.888-305.892c15.787-15.787 41.39-15.787 57.177 0.007l487.428 487.42c2.965 2.965 5.369 6.279 7.225 9.799zM868.971 804.967c25.067-25.067 25.067-65.703 0-90.763-25.067-25.063-65.707-25.070-90.77 0-25.070 25.060-25.063 65.7 0 90.763s65.703 25.063 90.77 0zM449.241 111.986c-15.79-15.783-41.39-15.783-57.18 0l-215.122 215.129c-15.79 15.78-15.79 41.387 0 57.173l396.658 396.665c15.79 15.79 41.39 15.79 57.177 0.004l215.125-215.125c15.79-15.794 15.79-41.387 0.004-57.177l-396.661-396.668z" />
<glyph unicode="&#xe918;" glyph-name="tags" d="M356.384 132.263c-14.588-14.581-38.226-14.585-52.811 0l-198.699 198.699c-14.581 14.571-14.581 38.219 0.004 52.807l366.364 366.372c14.585 14.585 38.233 14.585 52.811 0l5.547-5.547c0 0 96.779 96.668 101.088 100.974l-133.408 1.724c-6.606 0-12.668-2.329-17.408-6.215-3.257-1.71-6.315-3.936-9.060-6.674l-450.204-450.201c-14.588-14.578-14.588-38.226 0-52.807l282.524-282.532c14.581-14.588 38.229-14.588 52.814 0.004l45.995 45.998-41.476 41.479-4.082-4.082zM1001.323 506.226c3.883 4.743 6.219 10.802 6.219 17.408l-0.004 294.268c0.004 15.186-12.302 27.499-27.492 27.502h-294.272c-6.603 0.004-12.668-2.329-17.408-6.215-3.253-1.71-6.315-3.936-9.056-6.674l-450.197-450.204c-14.588-14.585-14.585-38.236 0-52.814l282.528-282.528c14.585-14.588 38.229-14.588 52.814 0.007l450.194 450.197c2.741 2.741 4.967 5.796 6.674 9.052zM932.565 770.428c23.15-23.15 23.15-60.686 0-83.833-19.452-19.449-49.031-22.496-71.73-9.259-4.316 2.517-8.405 5.557-12.107 9.259-23.157 23.147-23.15 60.683 0 83.833 3.701 3.701 7.79 6.741 12.107 9.259 22.699 13.23 52.277 10.187 71.73-9.259zM492.075 130.364l-198.695 198.702c-14.585 14.574-14.585 38.222 0 52.811l366.368 366.368c8.757 8.754 20.772 12.213 32.128 10.457 7.57-1.166 14.852-4.622 20.679-10.453l198.695-198.695c14.588-14.588 14.588-38.226 0.004-52.811l-366.364-366.379c-14.588-14.581-38.226-14.581-52.814 0z" />
<glyph unicode="&#xe919;" glyph-name="sales-target" d="M25.813 320.627h148.676v-320.875h-148.676v320.875zM233.114 474.031h148.676v-474.274h-148.676v474.274zM440.41 612.493h148.676v-612.736h-148.676v612.736zM647.714 741.227h148.676v-741.47h-148.676v741.47zM736.602 842.901h58.846v-53.572h-58.846v53.572zM624.239 842.901h58.846v-53.572h-58.846v53.572zM511.876 842.901h58.85v-53.572h-58.85v53.572zM399.509 842.901h58.854v-53.572h-58.854v53.572zM287.151 842.901h58.846v-53.572h-58.846v53.572zM174.784 842.901h58.846v-53.572h-58.846v53.572zM859.422 735.979l138.765 80.132-138.765 80.141zM62.421 842.901h58.846v-53.572h-58.846v53.572z" />
<glyph unicode="&#xe91a;" glyph-name="table-add-row" d="M32 714.368v110.222c0 50.972 41.468 92.444 92.444 92.444h775.111c50.976 0 92.444-41.472 92.444-92.444v-110.222c0-50.972-41.468-92.444-92.444-92.444h-775.111c-50.972 0-92.444 41.472-92.444 92.444zM949.333 824.594c0 27.449-22.325 49.778-49.778 49.778h-775.111c-27.449 0-49.778-22.329-49.778-49.778v-110.222c0-27.445 22.329-49.778 49.778-49.778h775.111c27.452 0 49.778 22.332 49.778 49.778v110.222zM266.667 224.299c0 135.278 110.055 245.333 245.333 245.333 135.275 0 245.333-110.055 245.333-245.333s-110.055-245.333-245.333-245.333c-135.275 0-245.333 110.055-245.333 245.333zM714.667 224.299c0 111.751-90.916 202.663-202.667 202.663-111.751 0.004-202.667-90.912-202.667-202.663s90.916-202.667 202.667-202.667c111.751 0 202.667 90.916 202.667 202.667zM490.667 82.965v282.667c0 11.78 9.554 21.333 21.333 21.333 11.783 0 21.333-9.557 21.333-21.333v-282.667c0-11.783-9.55-21.333-21.333-21.333-11.78 0-21.333 9.55-21.333 21.333zM349.333 224.299c0 11.78 9.554 21.333 21.333 21.333h282.667c11.783 0 21.333-9.557 21.333-21.333 0-11.783-9.55-21.333-21.333-21.333h-282.667c-11.78 0-21.333 9.55-21.333 21.333z" />
<glyph unicode="&#xe91b;" glyph-name="shop-close" d="M989.867 233.244l-99.2 369.778c-4.74 17.812-19.095 31.335-37.034 34.796l-0.299 0.048-409.956 193.067c1.216 5.202 1.913 11.176 1.913 17.313 0 43.79-35.499 79.289-79.289 79.289s-79.289-35.499-79.289-79.289c0-20.685 7.921-39.519 20.894-53.636l-0.052 0.057-257.778-372.267c-10.369-8.796-16.906-21.836-16.906-36.403 0-4.377 0.59-8.617 1.696-12.643l-0.078 0.334 99.2-369.778c7.111-25.6 33.067-40.533 58.311-33.778l764.444 204.8c25.244 6.756 40.533 33.067 33.778 58.311zM355.556 886.4c3.864 1.375 8.321 2.169 12.963 2.169 21.993 0 39.822-17.829 39.822-39.822 0-19.411-13.888-35.578-32.269-39.107l-0.25-0.040c-2.196-0.43-4.721-0.675-7.304-0.675-21.993 0-39.822 17.829-39.822 39.822 0 17.351 11.097 32.11 26.58 37.568l0.279 0.086zM112.711 444.444l228.622 328.533c7.456-2.573 16.048-4.059 24.987-4.059 23.579 0 44.742 10.338 59.206 26.729l0.074 0.086 361.956-170.667-674.844-180.622zM307.2 198.4l-0.711-6.044c-0.412-0.998-0.78-2.187-1.042-3.416l-0.025-0.14c0-1.422 0-2.489-0.711-3.556-5.134-16.183-16.204-29.22-30.592-36.814l-0.341-0.164-4.622-1.778-1.778-1.067c-0.711 0-1.422 0-2.133-0.711-2.087-0.655-3.853-1.379-5.544-2.229l0.21 0.096-3.556-0.711-3.556-1.067-3.556-0.356c-3.792-0.925-8.145-1.455-12.622-1.455s-8.83 0.53-13 1.532l0.378-0.077c-18.716 2.275-34.793 12.032-45.388 26.14l-0.123 0.171-3.556 5.689c-2.121 3.971-3.89 6.993-5.748 9.953l0.415-0.709-1.422 3.556c-0.745 2.203-1.586 4.083-2.58 5.866l0.091-0.177-0.711 1.778-2.133 7.111c-0.711 1.067-0.711 2.133-0.711 2.844v1.422c0 0.711-0.356 1.067-0.711 1.067l-0.356 2.133-0.356 3.556c-0.923 4.275-1.452 9.187-1.452 14.222s0.529 9.947 1.533 14.682l-0.082-0.46c1.948 9.385 5.020 17.708 9.134 25.39l-0.245-0.501c5.859 10.349 14.043 18.76 23.878 24.721l0.299 0.168c4.884 2.759 10.632 5.397 16.606 7.563l0.817 0.259 1.067 0.356c6.717 2.599 14.49 4.104 22.615 4.104 19.891 0 37.673-9.024 49.478-23.201l0.084-0.104c2.295-3.073 4.533-6.561 6.523-10.203l0.232-0.464 0.711-3.556c0-0.711-0.711-1.422-1.422-1.778l-2.133-1.422-1.778-0.356c-0.811-0.532-1.772-0.908-2.806-1.062l-0.039-0.005c-2.916-0.611-5.416-1.347-7.832-2.254l0.365 0.12c-2.771-0.851-6.136-1.597-9.583-2.090l-0.372-0.044h-3.556l-3.556 3.556c-0.711 1.422-1.778 2.489-3.2 3.556-3.543 3.69-7.967 6.507-12.934 8.116l-0.221 0.062c-3.556 1.067-7.111 1.422-11.022 1.778-2.844 0-5.689 0-9.244-1.067-4.592-1.172-8.623-3.005-12.23-5.422l0.141 0.089-2.489-1.422c-7.921-6.085-13.321-15.113-14.56-25.42l-0.018-0.18-0.711-5.689c0.048-1.378 0.075-2.997 0.075-4.622s-0.027-3.245-0.081-4.857l0.006 0.235c0.662-6.868 1.917-13.149 3.736-19.186l-0.181 0.697 0.711-2.133 0.711-1.778 1.067-2.133 1.422-3.556c1.616-3.163 2.916-5.49 4.278-7.776l-0.367 0.665c3.556-5.689 7.111-9.956 11.733-13.156 3.911-3.556 8.889-5.689 14.578-7.111l5.333-0.356c5.153 0.312 8.598 0.565 12.034 0.849l-2.078-0.138h1.778c0.711 0 1.778 0 2.844 0.711l2.489 1.067 2.133 0.711c3.672 1.939 6.346 3.473 8.975 5.073l-0.798-0.451c2.844 2.133 4.978 4.978 7.111 7.822 1.422 2.844 2.844 6.044 3.556 9.6 0.711 1.422 1.067 3.556 1.067 4.978 0 1.778 0 3.556 0.711 5.689v4.622c0 1.067 0.711 2.489 1.778 3.556 1.067 0.356 1.778 1.067 3.2 1.067l3.556 1.067 12.8 3.556 3.556 1.067h3.556c1.422-0.356 2.133-1.422 2.844-2.844l0.356-4.622 0.356-6.044v-6.756zM446.933 197.333c-0.356-0.711-1.422-1.422-2.844-1.778-1.422 0-2.844-0.711-3.911-1.067l-14.933-3.556-56.889-15.644-14.933-3.911-5.333-1.067c-1.422 0-2.489 0-3.556 1.067-0.711 0.711-1.422 1.778-1.778 3.2l-1.067 3.556-3.911 14.933-14.933 55.467-12.8 47.289-3.556 13.156-0.711 3.556v3.556c0 1.067 1.067 2.133 2.844 2.844l1.422 0.711 17.778 4.622 4.622 1.422c1.422 0 2.844 0 3.556-0.711s1.778-2.133 2.133-3.556l1.422-5.333 4.978-19.2 17.067-63.289 3.556-12.444 0.711-3.556c0-0.711 0.356-1.778 1.067-2.489l0.711-2.133 0.711-2.844c0-1.067 0.711-1.778 1.067-2.489 1.422-1.422 3.556-1.778 6.756-1.067l8.533 2.489 40.533 10.667c3.746 0.872 6.72 1.728 9.636 2.706l-0.747-0.218 4.622 0.711 2.844-0.356c1.067-0.711 1.778-1.778 2.133-2.844l1.067-4.267 2.489-9.6 1.067-3.2v-2.489c0-1.067-0.711-2.133-1.422-2.844zM592.711 284.8l-0.711-7.467c-1.778-10.667-5.333-20.622-10.667-29.156-6.826-10.221-15.784-18.497-26.282-24.337l-0.384-0.196-4.267-2.133-2.133-0.711-2.133-1.067-6.756-2.489-2.844-0.711-2.844-0.356-2.133-0.356c-0.512-0.296-1.103-0.54-1.728-0.7l-0.049-0.011-2.489-0.356-3.556-0.356-2.844-0.356h-3.556c-1.33-0.097-2.881-0.153-4.444-0.153s-3.115 0.055-4.651 0.165l0.206-0.012-4.978 0.711c-18.615 2.506-34.543 12.356-45.028 26.487l-0.127 0.18c-3.071 5.878-6.020 10.762-9.226 15.456l0.337-0.523-1.778 2.844c-0.496 1.301-0.974 2.355-1.506 3.377l0.084-0.177-0.711 1.778c-0.075 0.678-0.331 1.285-0.717 1.786l0.006-0.008-0.711 2.489c0 1.067 0 1.778-0.711 2.844l-1.067 3.2-0.711 3.2-0.356 2.133-0.711 1.778v1.422l-0.711 2.844c0 0.711-0.356 1.778 0 2.844l-0.356 2.133v2.133l-0.356 7.822v7.111l1.067 7.822 1.778 7.822c6.317 20.918 21.531 37.414 41.128 45.342l0.472 0.169 6.044 2.133 1.067 0.356 1.422 0.356c7.016 2.473 15.105 3.902 23.529 3.902 22.323 0 42.301-10.035 55.672-25.839l0.088-0.107c4.315-5.46 8.117-11.655 11.146-18.278l0.232-0.566c0.711-0.711 1.067-1.778 1.067-2.489l1.422-2.489 0.711-2.489c0-1.067 0.711-1.778 1.067-2.489v-1.778c0.711-0.711 1.422-2.133 1.778-3.911l1.067-4.622 0.711-2.489c0-1.778 0-3.2 0.711-4.622 0.678-2.253 1.068-4.843 1.068-7.523 0-0.105-0.001-0.21-0.002-0.315v0.016-11.022zM736.711 299.378l-1.778-7.111-1.422-2.133c-0.711-0.711-0.711-1.422-0.711-2.133-1.087-2.31-2.394-4.299-3.938-6.076l0.027 0.032c-3.026-3.895-6.416-7.285-10.182-10.215l-0.129-0.096c-2.954-2.050-7.129-4.75-11.367-7.358l-1.433-0.82c-3.518-1.135-6.459-2.339-9.289-3.734l0.4 0.178c-0.711 0-1.778-0.356-2.489-1.067l-1.778-0.356h-1.067l-1.067-0.711-3.556-1.067c-1.013-0.308-2.218-0.558-3.456-0.702l-0.099-0.009-2.133-0.711-3.2-0.356c-1.067-0.356-1.778-0.711-2.844-0.356-1.156-0.388-2.492-0.643-3.877-0.71l-0.034-0.001-5.689-0.356h-5.333c-7.111 0-14.222 1.422-20.267 3.556-10.715 3.694-19.39 10.985-24.772 20.401l-0.117 0.221c-0.429 0.715-0.793 1.541-1.048 2.413l-0.019 0.075c-0.428 0.953-0.903 1.77-1.451 2.531l0.029-0.042-1.778 3.556c-0.356 1.778-0.711 3.2 0 4.267 0 1.067 1.067 2.133 2.489 2.844l4.267 1.422 13.156 3.556c8.395 1.107 10.818 1.482 13.239 1.864l-6.128-0.798c1.778 0 3.2-1.067 3.556-2.489s1.778-3.2 2.844-4.622l3.556-3.911 3.556-3.556 3.2-1.422 2.844-1.422c3.556-1.067 7.822-1.778 12.8-1.778l2.844 0.356 3.2 0.356 1.067 0.356c1.067 0 2.489 0 4.622 0.711l4.622 1.778 1.778 0.711 4.267 2.133c3.902 2.146 7.202 4.88 9.912 8.124l0.044 0.054c2.133 2.489 3.556 6.756 3.2 11.733 0 1.067-0.356 2.489-1.067 3.556l-1.422 2.844c-2.837 3.83-7.105 6.461-11.999 7.102l-0.090 0.010c-2.489 1.067-4.978 1.422-7.822 1.422-2.119-0.066-4.61-0.104-7.111-0.104s-4.992 0.038-7.474 0.113l0.363-0.009h-7.822c-1.597-0.139-3.456-0.219-5.333-0.219s-3.736 0.079-5.573 0.235l0.24-0.016c-0.957-0.064-2.074-0.1-3.2-0.1s-2.243 0.036-3.351 0.108l0.151-0.008c-7.715 0.887-14.37 2.011-20.908 3.45l1.352-0.25c-3.556 1.067-7.111 2.844-10.667 4.978-5.983 3.576-10.649 8.815-13.428 15.078l-0.083 0.211c-1.687 3.299-2.933 7.131-3.531 11.174l-0.025 0.204v11.733c0.709 5.435 2.338 10.357 4.734 14.805l-0.112-0.227c2.133 4.267 5.333 8.533 8.889 12.444 2.133 2.489 4.978 4.622 7.822 6.4 4.855 2.884 10.694 5.858 16.722 8.48l1.056 0.409 1.778 0.356 1.778 0.711c27.022 7.822 47.644 4.622 62.222-9.244 2.133-1.778 3.556-3.556 4.978-6.044 1.745-2.839 3.641-6.335 5.368-9.927l0.321-0.74v-3.556c-0.356-1.067-1.422-1.778-2.489-2.489l-4.267-1.422-13.156-3.556-3.556-1.067h-3.556c-1.778 0-2.844 0.711-3.556 2.133-1.849 3.165-4.095 5.865-6.717 8.145l-0.039 0.033c-1.116 1.003-2.408 1.839-3.819 2.453l-0.092 0.036-6.756 2.133h-6.756c-5.595-0.355-10.8-1.629-15.598-3.673l0.309 0.117c-5.247-1.885-9.536-5.37-12.386-9.857l-0.058-0.098c-1.067-2.489-1.422-5.689-1.422-9.6l0.711-3.556 1.422-2.489c2.133-2.489 4.267-4.267 6.4-4.978 3.762-1.131 8.084-1.782 12.559-1.782 0.21 0 0.419 0.001 0.628 0.004h17.746c2.47 0.092 5.37 0.144 8.283 0.144 9.61 0 19.087-0.569 28.399-1.675l-1.127 0.109c4.622-1.422 8.533-2.844 11.733-4.622 3.948-1.962 7.343-4.335 10.335-7.133l-0.024 0.022 2.489-3.556 2.844-3.556 0.356-1.067 0.711-0.711c1.067-2.133 2.133-4.978 2.844-8.178 0.711-0.711 0.711-1.422 0.711-2.133l1.067-3.556c0.137-3.465 0.391-6.662 0.767-9.821l-0.056 0.577c0-2.844-0.711-5.333-1.067-7.822zM878.222 313.244c-0.711-1.067-1.778-1.778-2.844-2.133l-4.622-1.067-15.644-4.267-61.867-16.711-16.711-4.267-4.978-1.067c-1.778 0-2.844 0-3.911 1.067-0.711 0.711-1.422 1.778-1.778 3.2l-1.067 3.556-3.911 15.289-15.289 56.889-12.089 45.867-3.556 12.8-1.067 3.556v3.556c0 1.067 1.067 2.133 2.489 2.844h1.067l0.711 0.711 78.222 20.978 18.133 4.978c1.778 0 3.556 0.711 4.978 1.067 1.778 0 2.844 0 3.556-1.067 0.711 0 1.067-0.711 1.067-1.067l1.067-1.778 1.778-5.333c0.39-2.495 0.885-4.655 1.514-6.757l-0.092 0.357 0.711-2.844 0.711-3.556c0-1.422 0-2.844-1.067-3.556-0.711-1.067-1.778-1.422-2.844-1.778l-4.267-1.067-14.222-3.911-38.044-10.311c-2.074-0.694-4.817-1.43-7.61-2.031l-0.568-0.102c-1.422 0-2.844-0.711-3.911-1.422-1.422-0.356-2.133-1.067-2.489-1.778-1.067-0.711-1.067-2.133-1.067-3.556l0.711-4.267 3.556-12.089 1.422-6.044 1.778-2.489c0-0.711 1.067-1.422 1.778-1.422h3.2c1.067 0 2.133 0 3.556 0.711l11.378 2.844 35.911 9.6 3.556 1.067c2.422 0.883 5.296 1.626 8.26 2.098l0.273 0.036h2.844c0.711-0.356 1.422-1.067 2.133-2.489l1.422-3.556 1.422-4.622 0.711-4.267c0.634-3.536 1.005-5.339 1.393-7.135l-0.327 1.801c0-1.422 0-2.489-0.711-3.556-0.794-0.658-1.749-1.151-2.795-1.412l-0.049-0.010-3.556-1.067c-2.147-0.69-5.013-1.428-7.929-2.029l-0.605-0.104-40.889-10.667c-2.153-0.845-5.113-1.817-8.126-2.662l-0.763-0.183c-1.422-0.356-2.133-1.067-3.2-2.133-0.711-0.711-1.067-1.778-1.067-3.556l0.356-2.133 0.711-2.133 5.333-19.556c0-1.778 0.711-3.2 1.422-4.622 0.356-1.067 1.422-2.133 2.489-2.489h3.911l2.133 0.356 2.489 0.356 2.133 0.711 8.889 2.489 39.111 10.667 11.378 2.844 3.2 1.067h2.844c1.422 0 2.133-0.711 2.844-1.778l1.422-2.489 1.067-2.844 2.489-9.6 1.067-4.978c0-1.422 0-2.844-1.067-3.556zM559.289 291.2l-0.711 5.333-0.356 1.778-0.711 1.778-0.356 1.778-0.356 3.2-1.422 2.844-0.711 3.556-0.711 1.778-2.133 4.267-1.067 3.2-1.067 2.133-2.489 4.267c-0.711 1.422-1.778 2.844-3.2 3.911-4.978 6.4-10.667 11.022-17.778 13.867-3.906 1.379-8.411 2.176-13.102 2.176-6.631 0-12.89-1.592-18.416-4.416l0.229 0.106c-3.168-1.535-5.73-2.955-8.212-4.491l0.39 0.225c-5.333-4.267-8.889-8.889-11.378-14.222-2.608-5.869-4.126-12.716-4.126-19.918 0-3.394 0.337-6.709 0.98-9.914l-0.054 0.32 0.356-1.778 0.356-2.489 0.711-2.133 0.356-3.911 1.422-3.911 0.711-2.133 0.711-1.778c0-0.711 0-1.422 0.711-1.778l0.356-1.778 4.978-9.956c2.844-3.911 5.689-7.467 9.244-10.667 3.2-3.556 6.756-5.689 10.667-7.111 5.030-1.504 10.862-2.522 16.88-2.837l0.186-0.008h2.133l1.778 0.356 2.844 0.356 2.489 0.711 1.778 0.356 3.556 1.422 4.267 2.133c6.489 3.592 11.697 8.8 15.189 15.093l0.1 0.196c3.144 6.316 4.984 13.757 4.984 21.628 0 0.271-0.002 0.542-0.007 0.812l0.001-0.041v5.689z" />
<glyph unicode="&#xe91c;" glyph-name="shop-open" d="M468.978 322.133c-1.457 2.48-3.231 4.593-5.3 6.372l-0.033 0.028c-1.422 1.422-3.911 2.489-7.111 3.556-2.133 0.711-4.978 0.711-8.178 0.711-3.556 0-6.756-0.711-10.667-1.422-9.401-2.243-17.236-4.683-24.85-7.572l1.383 0.461c-1.422-0.711-2.133-1.778-2.133-3.2l0.356-4.622 1.422-4.978 5.333-19.911 1.422-5.689c0.711-2.133 1.422-3.556 2.489-4.622 0.711-0.356 1.778-1.067 2.844-1.067h3.911l9.244 2.844c7.111 1.778 14.222 4.267 19.911 6.4 5.445 1.865 9.753 5.826 12.037 10.894l0.052 0.128 1.067 4.622v5.689c-0.433 4.234-1.699 8.093-3.632 11.526l0.077-0.148zM338.844 236.444l-0.711 5.333v1.778l-0.711 1.778-0.356 1.778-0.356 3.2-1.422 2.844-1.067 3.556-0.356 1.778-2.133 4.267-1.422 3.2-1.067 2.133c6.798-11.655 5.036-8.871 3.278-6.085l-8.611 14.618c-4.978 6.044-10.667 10.667-17.778 13.511-4.027 1.472-8.676 2.323-13.524 2.323-6.466 0-12.578-1.514-18.001-4.206l0.236 0.106c-3.283-1.646-5.959-3.183-8.547-4.844l0.369 0.222c-4.646-3.718-8.288-8.502-10.581-13.99l-0.086-0.233c-2.504-6.177-3.956-13.341-3.956-20.844 0-0.797 0.016-1.591 0.049-2.38l-0.004 0.113v-4.978l0.356-1.422v-1.778c0-0.711 0-1.422 0.711-2.489l0.711-2.133 0.356-3.911c0.356-2.133 0.711-3.556 1.422-3.911l0.356-2.133 1.422-3.556 0.711-1.422 0.356-1.778 2.133-4.267 2.489-4.267c2.844-3.911 5.689-7.467 8.889-10.667 3.556-3.556 7.111-5.689 10.667-7.111l2.844-1.067c4.222-1.004 9.111-1.644 14.127-1.776l0.095-0.002h2.133l2.133 0.356 2.489 0.356 2.844 0.711 1.778 0.711 1.778 0.356c0.711 0 1.067 0.356 1.778 1.067l3.911 1.778c1.422 0.356 2.844 1.067 3.556 2.133 5.689 3.911 9.6 8.178 11.733 13.156 3.144 6.316 4.984 13.757 4.984 21.628 0 0.271-0.002 0.542-0.007 0.812l0.001-0.041v5.689zM989.867 233.244l-99.2 369.778c-4.74 17.812-19.095 31.335-37.034 34.796l-0.299 0.048-409.956 193.067c1.216 5.202 1.913 11.176 1.913 17.313 0 43.79-35.499 79.289-79.289 79.289s-79.289-35.499-79.289-79.289c0-20.685 7.921-39.519 20.894-53.636l-0.052 0.057-257.778-372.267c-10.369-8.796-16.906-21.836-16.906-36.403 0-4.377 0.59-8.617 1.696-12.643l-0.078 0.334 99.2-369.778c7.111-25.6 33.067-40.533 58.311-33.778l764.444 204.8c25.244 6.756 40.533 33.067 33.778 58.311zM355.556 886.4c3.864 1.375 8.321 2.169 12.963 2.169 21.993 0 39.822-17.829 39.822-39.822 0-19.411-13.888-35.578-32.269-39.107l-0.25-0.040c-2.196-0.43-4.721-0.675-7.304-0.675-21.993 0-39.822 17.829-39.822 39.822 0 17.351 11.097 32.11 26.58 37.568l0.279 0.086zM112.711 444.444l228.622 328.533c7.456-2.573 16.048-4.059 24.987-4.059 23.579 0 44.742 10.338 59.206 26.729l0.074 0.086 361.956-170.667-674.844-180.622zM372.267 230.044c0-2.489 0-4.978-0.711-7.467-1.422-10.667-4.978-20.622-10.667-29.156-6.733-10.188-15.569-18.457-25.937-24.338l-0.374-0.195-4.267-1.778-4.267-2.133-7.111-2.489-2.489-0.711-2.844-0.356-2.133-0.356c-0.617-0.329-1.334-0.577-2.091-0.705l-0.042-0.006-2.133-0.356-3.556-0.356-3.2-0.356c-0.23 0.003-0.502 0.005-0.774 0.005-2.233 0-4.436-0.131-6.6-0.386l0.263 0.025c-1.87 0.266-5.415 0.645-8.975 0.969l-1.336 0.098c-18.628 2.464-34.57 12.326-45.027 26.485l-0.128 0.182-3.556 5.689c-2.057 3.884-3.827 6.907-5.697 9.859l0.364-0.614-1.422 2.844-1.422 3.2-0.711 1.778c-0.075 0.678-0.331 1.285-0.717 1.786l0.006-0.008-0.711 2.489-0.711 2.844c-0.356 0.711-1.067 1.422-1.422 3.2l-0.356 3.2-0.356 2.133-0.711 1.778v1.422l-0.711 2.844c-0.239 0.682-0.378 1.468-0.378 2.286 0 0.196 0.008 0.391 0.024 0.584l-0.002-0.025v2.133l-0.356 2.489v14.578c0 2.844 0.711 5.333 1.067 8.178 4.376 24.438 20.863 44.223 42.906 53.164l0.472 0.169 6.044 1.778 2.133 0.711c7.016 2.473 15.105 3.902 23.529 3.902 22.323 0 42.301-10.035 55.672-25.839l0.088-0.107c4.443-5.367 8.356-11.441 11.501-17.956l0.232-0.533 1.067-2.844c0-1.067 0.711-1.778 1.067-2.489 0.711-0.711 1.067-1.778 1.067-2.489l0.711-2.489 0.356-1.778 1.778-3.911c0.711-2.133 1.067-3.556 0.711-4.622l0.711-2.489c0-1.778 0.356-3.2 1.067-4.622 0.479-1.892 0.755-4.063 0.755-6.299 0-0.536-0.016-1.068-0.047-1.596l0.003 0.073v-11.022zM504.178 302.222c-0.165-1.010-0.292-2.235-0.352-3.477l-0.003-0.079c-0.501-1.24-1.227-3.366-1.897-5.518l-0.236-0.882c-1.708-4.827-4.251-8.973-7.488-12.468l0.021 0.023c-4.696-4.717-10.082-8.741-15.994-11.912l-0.361-0.177c-1.778-0.356-3.556-1.067-4.978-2.133l-2.489-0.711c-1.067 0-1.422-0.711-2.133-1.067l-8.889-2.133-17.778-4.978c-1.422 0-3.556-0.711-5.333-1.422-2.133-0.356-3.556-1.422-4.622-2.489-1.067-1.422-1.422-3.556-0.711-5.689l2.133-7.111 7.111-27.733 1.778-5.333c0.711-2.133 0.711-3.556 0-4.978 0-1.067-1.067-2.133-2.844-3.556l-3.2-0.711-3.556-0.711-11.733-3.556-4.622-0.711h-3.556c-1.067 0.711-1.778 1.422-2.133 2.844l-1.422 4.622-33.778 125.156-1.778 7.111c-0.711 2.489-1.067 4.622-0.711 5.689s1.422 2.133 2.844 3.2h0.711l1.067 0.711 60.444 16 3.556 1.067c1.422 0.711 2.489 0.711 3.556 0.711l1.422 0.356h2.489l2.133 0.356h2.133l1.778 0.356h7.111c3.575-0.009 6.996-0.66 10.157-1.844l-0.201 0.066c1.067 0 1.778-0.711 2.844-1.067 1.067 0 1.778-0.711 2.133-1.067l2.489-1.067 1.422-0.711 5.689-3.911c4.267-3.556 7.822-8.178 10.667-13.156 4.535-8.225 7.38-17.957 7.818-28.311l0.004-0.133c0-2.489 0-4.978-0.711-7.467zM661.689 259.556c-0.711-1.067-1.422-1.778-2.844-2.133l-4.267-1.067-15.644-4.267-62.222-16.711-16.356-4.267-5.333-1.067c-1.422 0-2.844 0-3.556 1.067-1.067 0.711-1.778 1.778-2.133 3.2l-0.711 3.556-4.267 15.289-15.289 56.889-12.089 45.867-3.556 12.8c0 1.422-0.711 2.489-1.067 3.556v3.556c0.356 1.067 1.422 2.133 2.844 2.844h0.711l0.711 0.711 78.222 20.978 18.489 4.622 4.622 1.422c1.778 0 2.844 0 3.911-1.067l1.067-1.067 0.711-1.778 1.778-5.333c0.529-2.528 1.142-4.672 1.888-6.752l-0.11 0.352 0.711-3.2 0.356-3.2c0-1.778 0-2.844-1.067-3.556-0.711-1.067-1.778-1.422-2.844-1.778l-3.911-1.067-14.578-3.911-38.044-10.311c-2.108-0.711-4.852-1.447-7.648-2.039l-0.53-0.094-3.911-1.422c-1.067-0.711-2.133-1.067-2.489-1.778-0.711-0.711-1.067-2.133-1.067-3.556l1.067-4.267 3.2-12.089 1.422-6.044 1.778-2.489c0.356-0.711 1.067-1.422 1.778-1.422h3.556c0.711 0 2.133 0 3.556 0.711l11.022 2.844 35.911 9.6c3.37 0.842 6.099 1.695 8.764 2.678l-0.586-0.189 3.556 0.711h3.2c0.711-0.356 1.422-1.067 2.133-2.489l1.422-3.556c0.973-2.493 1.833-5.474 2.433-8.547l0.056-0.341 0.711-2.844v-2.489c0-1.422 0-2.489-0.711-3.556l-2.489-1.422-4.267-1.067c-1.909-0.655-4.528-1.389-7.191-2.009l-0.632-0.124-40.889-10.667c-2.111-0.795-5.193-1.768-8.321-2.628l-0.924-0.217c-1.067-0.356-2.133-1.067-2.844-2.133-0.711-0.711-1.067-2.133-1.422-3.556l0.356-2.133 0.711-2.133 5.333-19.556 1.422-4.622c0.711-1.067 1.422-2.133 2.489-2.489h6.044l2.489 0.711 2.133 0.711 8.889 2.489 39.111 10.667 11.378 2.844 3.556 0.711c0.711 0.356 1.778 0.356 2.844 0 1.067 0 2.133-0.356 2.844-1.422l1.067-2.489 1.067-2.844 2.489-9.6 1.067-4.978c0-1.422 0-2.844-1.067-3.556zM811.733 300.8c-0.289-0.936-0.927-1.689-1.758-2.124l-0.020-0.009-2.489-1.422-7.111-1.778-11.733-3.2c1.363 0.112-1.060-0.262-3.488-0.624l-3.623-0.443c-1.422 0-2.844 0.711-4.267 1.778-5.153 4.251-9.791 8.552-14.172 13.103l-0.050 0.053-44.8 41.956c-6.062 5.808-12.545 11.841-19.115 17.78l-0.796 0.709c-1.067 1.067-2.489 1.778-4.267 1.067-0.711-1.067-1.067-2.489-0.711-3.556l1.067-4.978 3.911-14.578 13.511-50.133 2.133-8.178 0.711-2.133v-2.133l1.067-2.133v-5.333c-0.356-1.067-1.067-1.778-2.489-2.133l-3.911-1.422-12.8-3.556-3.556-0.711c-0.711 0-1.778-0.356-2.844 0-2.133 0-3.556 0.711-3.911 2.489l-2.133 6.4-6.4 24.178-22.4 83.911-5.333 19.556c-1.499 10.63-1.997 13.654-2.505 16.674l1.083-7.785c0 1.067 1.067 2.133 2.133 2.844l1.067 0.356 0.711 0.356 17.067 4.622 4.622 1.422h3.911c1.778 0 2.844-0.711 3.911-1.422l3.2-2.844 10.667-9.956c20.757-19.651 43.099-40.079 65.789-60.123l2.833-2.455 1.422 0.356c1.067 0.711 1.067 1.422 1.067 2.489l-0.356 3.2-1.067 3.556-1.067 3.2-3.556 13.156-12.8 48.711-2.133 7.822c-0.254 0.899-0.497 1.608-0.77 2.302l0.058-0.169-0.356 1.778-0.711 2.489v4.978c0.356 1.067 1.422 1.778 2.489 2.133l3.911 1.422 12.8 3.556 3.556 0.711 2.844 0.356c2.133 0 3.556-1.067 3.911-2.844 0.711-1.778 1.422-3.556 1.778-6.044l6.4-23.111 23.467-87.822 4.622-17.778 1.422-4.267c0.356-1.422 0.711-2.844 0-3.556z" />
<glyph unicode="&#xe91d;" glyph-name="home" d="M939.738 457.391l-391.462 391.467c-19.785 19.78-51.853 19.78-71.637 0l-392.38-392.38c-19.78-19.785-19.78-51.853 0-71.637 9.89-9.886 22.857-14.835 35.819-14.835s25.929 4.945 35.819 14.835l356.561 356.565 355.648-355.648c9.89-9.886 22.852-14.835 35.819-14.835s25.924 4.945 35.819 14.835c19.78 19.78 19.78 51.849-0.004 71.633zM512 670.468l-299.004-298.999v-339.162h187.213v212.164h221.781v-212.164h189.005v339.162z" />
<glyph unicode="&#xe91e;" glyph-name="coin-dollar" d="M931.132 266.592c0.565 1.465 1.060 2.955 1.604 4.427-0.523-0.789-1.074-1.564-1.604-2.35v-2.076zM512 901.732c-258.631 0-469.042-182.663-469.042-407.186 0-15.74 0-77.34 0-93.084 0-224.526 210.411-407.193 469.042-407.193s469.042 182.667 469.042 407.193c0 15.744 0 77.344 0 93.084 0 224.523-210.411 407.186-469.042 407.186zM105.447 291.641c11.488-17.276 24.402-33.756 38.592-49.326v-24.814c-15.936 23.204-28.924 48.046-38.592 74.14zM214.809 140.352v39.403c12.668-9.035 25.906-17.486 39.63-25.348v-43.243c-13.902 9.042-27.132 18.791-39.63 29.188zM325.209 73.831v47.243c12.924-4.896 26.14-9.291 39.63-13.173v-48.576c-13.547 4.27-26.763 9.124-39.63 14.507zM435.612 42.802v49.98c13.042-1.867 26.254-3.285 39.63-4.188v-50.293c-13.394 0.988-26.617 2.482-39.63 4.501zM546.009 38.094v50.332c13.372 0.832 26.592 2.158 39.63 3.957v-49.995c-13.017-1.941-26.236-3.385-39.63-4.295zM656.405 58.475v48.647c13.486 3.797 26.709 8.096 39.63 12.903v-47.346c-12.86-5.287-26.091-10.023-39.63-14.204zM766.809 109.365v43.474c13.721 7.737 26.944 16.089 39.63 24.992v-39.78c-12.508-10.222-25.742-19.812-39.63-28.686zM916.843 287.058c-10.044-25.909-23.388-50.549-39.63-73.529v25.82c14.571 15.687 27.829 32.32 39.63 49.785 0.53 0.786 1.081 1.561 1.604 2.354-0.544-1.472-1.038-2.965-1.604-4.43zM512 130.016c-235.104 0-426.375 163.527-426.375 364.526s191.271 364.523 426.375 364.523 426.375-163.52 426.375-364.519-191.271-364.53-426.375-364.53zM534.322 707.356c44.533-4.167 83.292-19.147 116.267-44.924 8.779-6.741 13.166-13.98 13.166-21.714 0-5.948-2.144-11.008-6.425-15.175-5.355-5.355-11.456-8.028-18.304-8.028-6.425 0-14.244 3.868-23.445 11.602-22.916 19.232-50.002 30.642-81.259 34.212v-138.926c41.753-11.705 72.587-22.905 92.501-33.614 39.186-21.028 58.773-49.98 58.773-86.869 0-44.427-21.412-76.754-64.235-96.978-22.055-10.514-51.065-17.156-87.036-19.932v-31.826c0-3.573-0.964-6.844-2.891-9.82-4.284-6.347-10.812-9.522-19.591-9.522-9.422 0-16.274 3.175-20.555 9.522-1.927 2.976-2.891 6.247-2.891 9.82v31.826c-54.82 4.359-99.14 22.308-132.971 53.852-11.349 10.507-17.020 19.524-17.020 27.065 0 5.358 2.034 10.212 6.105 14.581 5.348 5.749 11.666 8.626 18.948 8.626 7.065 0 15.093-4.466 24.085-13.387 16.7-16.661 34.258-28.462 52.672-35.403 13.060-4.964 29.116-8.434 48.181-10.414v159.751c-35.972 10.308-65.956 22.709-89.931 37.188-30.411 18.244-45.611 42.542-45.611 72.882 0 36.096 17.668 64.060 52.996 83.897 20.555 11.495 48.068 18.93 82.546 22.308v32.128c0 5.152 1.707 9.522 5.138 13.092 4.494 4.359 10.596 6.542 18.304 6.542 8.779 0 15.2-2.972 19.271-8.924 2.14-3.175 3.211-6.741 3.211-10.709v-32.725zM488.395 663.332c-54.393-5.355-81.582-25.095-81.582-59.2 0-17.657 9.422-32.722 28.263-45.216 11.563-7.339 29.333-14.777 53.319-22.311v126.727zM534.322 479.481v-147.556c63.595 6.347 95.392 30.244 95.392 71.694 0 21.020-11.46 37.98-34.368 50.873-13.92 7.929-34.258 16.26-61.024 24.988z" />
<glyph unicode="&#xe91f;" glyph-name="office" d="M712.238 700.398v232.188h-646.119v-969.173h269.241v135.726h107.637v-135.726h514.891v736.985h-245.65zM320.366 222.564h-107.641v107.637h107.637v-107.637zM320.366 461.483h-107.641v107.634h107.637v-107.634zM320.366 700.398h-107.641v107.637h107.637v-107.637zM565.639 222.564h-107.644v107.637h107.644v-107.637zM565.639 461.483h-107.644v107.634h107.644v-107.634zM565.639 700.398h-107.644v107.637h107.644v-107.637zM823.25 222.564h-107.637v107.637h107.637v-107.637zM823.25 461.483h-107.637v107.634h107.637v-107.634z" />
<glyph unicode="&#xe920;" glyph-name="bookmark-outline" horiz-adv-x="1020" d="M989.422 756.565v111.947h-144.978v7.289c0 7.854-6.368 14.222-14.222 14.222h-138.667c-7.854 0-14.222-6.368-14.222-14.222v-7.289h-74.318c-39.207 0-73.543-20.836-92.786-51.947-19.257 31.111-53.589 51.947-92.793 51.947h-386.414v-111.947h-21.732v-716.32h412.501c28.423 0 53.685-13.415 69.863-34.265h37.138c16.188 20.839 41.447 34.265 69.87 34.265h412.491v716.32h-21.732zM493.86 92.38c-19.712 19.278-46.724 31.001-76.423 31.001h-353.675v712.391h353.678c42.14 0 76.423-34.286 76.423-76.423l-0.004-666.969zM956.693 123.367h-353.682c-29.703 0-56.708-11.716-76.423-31.001v666.98c0 42.14 34.286 76.423 76.423 76.423h74.322v-364.412l83.556 124.892 83.556-124.892v364.416h112.249v-712.405z" />
<glyph unicode="&#xe921;" glyph-name="card" d="M160 426.667h224c11.783 0 21.333 9.55 21.333 21.333 0 11.78-9.55 21.333-21.333 21.333h-224c-11.78 0-21.333-9.557-21.333-21.333 0-11.783 9.554-21.333 21.333-21.333zM704 309.333h-544c-11.78 0-21.333-9.557-21.333-21.333 0-11.783 9.554-21.333 21.333-21.333h544c11.783 0 21.333 9.55 21.333 21.333 0 11.776-9.55 21.333-21.333 21.333zM924.444 757.333h-824.889c-31.367 0-56.889-25.522-56.889-56.889v-504.889c0-31.367 25.522-56.889 56.889-56.889h824.889c31.367 0 56.889 25.522 56.889 56.889v504.889c0 31.367-25.522 56.889-56.889 56.889zM99.556 714.667h824.889c7.847 0 14.222-6.382 14.222-14.222v-55.111h-853.333v55.111c0 7.84 6.382 14.222 14.222 14.222zM924.444 181.333h-824.889c-7.84 0-14.222 6.375-14.222 14.222v375.111h853.333v-375.111c0-7.847-6.375-14.222-14.222-14.222z" />
<glyph unicode="&#xe922;" glyph-name="coin-point" d="M931.132 266.592c0.565 1.465 1.060 2.955 1.604 4.427-0.523-0.789-1.074-1.564-1.604-2.35v-2.076zM512 901.732c-258.631 0-469.042-182.663-469.042-407.186 0-15.74 0-77.34 0-93.084 0-224.526 210.411-407.193 469.042-407.193s469.042 182.667 469.042 407.193c0 15.744 0 77.344 0 93.084 0 224.523-210.411 407.186-469.042 407.186zM105.447 291.641c11.488-17.276 24.402-33.756 38.592-49.326v-24.814c-15.936 23.204-28.924 48.046-38.592 74.14zM214.809 140.352v39.403c12.668-9.035 25.906-17.486 39.63-25.348v-43.243c-13.902 9.042-27.132 18.791-39.63 29.188zM325.209 73.831v47.243c12.924-4.896 26.14-9.291 39.63-13.173v-48.576c-13.547 4.27-26.763 9.124-39.63 14.507zM435.612 42.802v49.98c13.042-1.867 26.254-3.285 39.63-4.188v-50.293c-13.394 0.988-26.617 2.482-39.63 4.501zM546.009 38.094v50.332c13.372 0.832 26.592 2.158 39.63 3.957v-49.995c-13.017-1.941-26.236-3.385-39.63-4.295zM656.405 58.475v48.647c13.486 3.797 26.709 8.096 39.63 12.903v-47.346c-12.86-5.287-26.091-10.023-39.63-14.204zM766.809 109.365v43.474c13.721 7.737 26.944 16.089 39.63 24.992v-39.78c-12.508-10.222-25.742-19.812-39.63-28.686zM916.843 287.058c-10.044-25.909-23.388-50.549-39.63-73.529v25.82c14.571 15.687 27.829 32.32 39.63 49.785 0.53 0.786 1.081 1.561 1.604 2.354-0.544-1.472-1.038-2.965-1.604-4.43zM512 130.016c-235.104 0-426.375 163.527-426.375 364.526s191.271 364.523 426.375 364.523 426.375-163.52 426.375-364.519-191.271-364.53-426.375-364.53zM711.285 570.404c0.875-3.036 1.312-7.1 1.312-12.213s-0.437-8.996-1.312-11.637c-0.882-2.652-1.106-5.113-0.661-7.381 0.43-2.276 0.217-4.743-0.661-7.385-0.882-2.272-1.543-4.644-1.973-7.1-0.437-2.464-1.099-4.821-1.973-7.097-0.882-3.036-1.867-5.874-2.958-8.519-1.106-2.652-2.304-5.305-3.62-7.947-0.882-1.138-1.429-2.187-1.646-3.125-0.228-0.953-0.772-1.803-1.646-2.556-4.825-7.577-10.091-14.393-15.783-20.444-0.882-1.518-2.304-3.036-4.277-4.54-1.973-1.522-3.62-2.652-4.932-3.41-1.756-0.764-3.292-1.799-4.604-3.125-1.319-1.326-2.631-2.368-3.943-3.125l-13.82-6.812c-4.825-3.036-10.521-5.305-17.099-6.812-6.585-1.522-13.159-3.036-19.737-4.548-3.513-0.757-7.022-1.23-10.521-1.415-3.52-0.196-7.022-0.668-10.528-1.415-1.756-0.38-3.403-0.48-4.932-0.284-1.543 0.188-2.965 0.089-4.277-0.284-2.201-0.38-4.277-0.38-6.251 0-1.973 0.373-4.057 0.373-6.251 0h-99.321c-6.581 0-13.714 0.089-21.38 0.284-7.676 0.188-13.486-1.049-17.429-3.687-4.832-3.040-7.136-8.519-6.905-16.473 0.217-7.95 0.327-15.335 0.327-22.148v-83.481c0-4.924 0.103-11.076 0.331-18.457 0.217-7.381-0.772-12.597-2.962-15.62-1.756-2.272-3.844-3.687-6.247-4.256-2.418-0.569-5.376-1.237-8.882-1.988h-11.84c-6.578 0-12.498 0.188-17.756 0.562-5.262 0.373-8.992 2.272-11.186 5.682-1.756 2.272-2.631 5.397-2.631 9.369 0 3.979 0 7.854 0 11.644v344.708c0 4.16-0.11 8.804-0.327 13.913-0.228 5.113 0.761 9.173 2.958 12.21 1.746 2.272 5.035 4.164 9.867 5.682 0.871 0.37 1.746 0.469 2.628 0.281 0.875-0.196 1.749-0.096 2.631 0.284h149.319c16.661 0 32.992-0.096 48.999-0.284 16.007-0.196 30.361-1.988 43.090-5.394 19.73-5.682 35.737-13.063 48.014-22.148 12.27-9.088 22.368-21.579 30.258-37.479 2.194-4.174 3.833-8.519 4.939-13.063 1.092-4.54 2.514-9.28 4.27-14.197 0.875-2.652 1.092-5.113 0.661-7.381-0.437-2.276-0.213-4.743 0.668-7.385zM649.451 549.956c1.749 5.298 1.973 11.452 0.661 18.457-1.319 7.001-2.631 12.583-3.943 16.754-4.388 10.592-10.201 19.026-17.436 25.269-7.228 6.247-16.555 11.449-27.95 15.62-9.653 3.406-20.722 5.483-33.223 6.247-12.494 0.754-25.55 1.134-39.132 1.134h-84.857c-0.885-0.38-1.87-0.565-2.958-0.565-1.102 0-2.304-0.196-3.62-0.569-5.262-1.134-8.779-3.605-10.524-7.381-1.76-3.79-2.532-8.804-2.3-15.047 0.217-6.247 0.327-12.025 0.327-17.323v-68.146c0-5.678-0.11-11.925-0.327-18.741-0.228-6.816 0.985-12.121 3.616-15.904 2.19-3.036 5.593-4.825 10.197-5.397 4.604-0.565 9.753-0.85 15.46-0.85h88.8c6.578 0 13.369 0.089 20.388 0.284 7.008 0.185 13.152 0.85 18.418 1.991 11.84 2.642 22.251 5.764 31.243 9.369 8.985 3.595 16.548 9.173 22.695 16.75 3.506 4.548 6.251 9.276 8.224 14.201 1.973 4.917 3.833 10.411 5.589 16.469 0.434 1.504 0.654 3.975 0.654 7.378z" />
<glyph unicode="&#xe923;" glyph-name="table-add-row-bottom" d="M992 181.632v-110.222c0-50.98-41.465-92.444-92.444-92.444h-775.111c-50.972 0-92.444 41.465-92.444 92.444v110.222c0 50.972 41.472 92.444 92.444 92.444h775.111c50.98 0 92.444-41.472 92.444-92.444zM74.667 71.41c0-27.452 22.329-49.778 49.778-49.778h775.111c27.452 0 49.778 22.325 49.778 49.778v110.222c0 27.445-22.325 49.778-49.778 49.778h-775.111c-27.449 0-49.778-22.332-49.778-49.778v-110.222zM757.333 671.701c0-135.278-110.055-245.333-245.333-245.333s-245.333 110.055-245.333 245.333 110.055 245.333 245.333 245.333 245.333-110.055 245.333-245.333zM309.333 671.701c0-111.751 90.916-202.667 202.667-202.667s202.667 90.916 202.667 202.667-90.916 202.667-202.667 202.667-202.667-90.916-202.667-202.667zM533.333 813.035v-282.667c0-11.78-9.55-21.333-21.333-21.333-11.78 0-21.333 9.557-21.333 21.333v282.667c0 11.783 9.557 21.333 21.333 21.333 11.783 0 21.333-9.55 21.333-21.333zM674.667 671.701c0-11.78-9.55-21.333-21.333-21.333h-282.667c-11.78 0-21.333 9.557-21.333 21.333 0 11.783 9.557 21.333 21.333 21.333h282.667c11.783 0 21.333-9.554 21.333-21.333z" />
<glyph unicode="&#xe924;" glyph-name="table-remove-column" d="M245.632-32h-110.222c-50.972 0-92.444 41.468-92.444 92.444v775.111c0 50.972 41.472 92.444 92.444 92.444h110.222c50.972 0 92.444-41.472 92.444-92.444v-775.111c0-50.976-41.472-92.444-92.444-92.444zM135.41 885.333c-27.449 0-49.778-22.329-49.778-49.778v-775.111c0-27.452 22.329-49.778 49.778-49.778h110.222c27.449 0 49.778 22.325 49.778 49.778v775.111c0 27.449-22.329 49.778-49.778 49.778h-110.222zM735.705 458.667c-135.278 0-245.333-110.055-245.333-245.333s110.055-245.333 245.333-245.333 245.333 110.055 245.333 245.333-110.055 245.333-245.333 245.333zM877.038 192h-282.667c-11.78 0-21.333 9.557-21.333 21.333s9.554 21.333 21.333 21.333h282.667c11.78 0 21.333-9.557 21.333-21.333s-9.554-21.333-21.333-21.333z" />
<glyph unicode="&#xe925;" glyph-name="grid" d="M919.684 917.333h-815.371c-33.991 0-61.646-27.655-61.646-61.646v-815.371c0-33.995 27.655-61.65 61.646-61.65h815.371c33.995 0 61.65 27.655 61.65 61.65v815.371c0 33.991-27.655 61.646-61.65 61.646zM85.333 778.276h181.333v-116.942h-181.333v116.942zM533.333 501.333v117.333h181.333v-117.333h-181.333zM714.667 458.667v-117.333h-181.333v117.333h181.333zM533.333 661.333v116.942h181.333v-116.942h-181.333zM490.667 661.333h-181.333v116.942h181.333v-116.942zM490.667 618.667v-117.333h-181.333v117.333h181.333zM490.667 458.667v-117.333h-181.333v117.333h181.333zM490.667 298.667v-117.333h-181.333v117.333h181.333zM490.667 138.667v-117.333h-181.333v117.333h181.333zM533.333 138.667h181.333v-117.333h-181.333v117.333zM533.333 181.333v117.333h181.333v-117.333h-181.333zM757.333 298.667h181.333v-117.333h-181.333v117.333zM757.333 341.333v117.333h181.333v-117.333h-181.333zM757.333 501.333v117.333h181.333v-117.333h-181.333zM757.333 661.333v116.942h181.333v-116.942h-181.333zM85.333 618.667h181.333v-117.333h-181.333v117.333zM85.333 458.667h181.333v-117.333h-181.333v117.333zM85.333 298.667h181.333v-117.333h-181.333v117.333zM85.333 40.316v98.35h181.333v-117.333h-162.354c-10.464 0-18.98 8.516-18.98 18.983zM919.684 21.333h-162.35v117.333h181.333v-98.35c0-10.468-8.516-18.983-18.983-18.983z" />
<glyph unicode="&#xe926;" glyph-name="angle-down" d="M865.745 703.808c9.408 9.408 24.802 9.408 34.21 0l53.282-53.282c9.408-9.408 9.408-24.802 0-34.21l-336.636-336.636c-9.408-9.399-17.109-17.101-17.109-17.101 0-0.009-7.697-7.701-17.101-17.109l-53.286-53.282c-9.404-9.408-24.802-9.408-34.21 0l-53.282 53.282c-9.408 9.408-24.802 24.802-34.214 34.21l-336.631 336.636c-9.408 9.408-9.408 24.802 0 34.21l53.282 53.282c9.408 9.408 24.802 9.408 34.21 0l336.636-336.627c9.408-9.408 24.802-9.408 34.21 0l336.64 336.627z" />
<glyph unicode="&#xe927;" glyph-name="angle-up" d="M158.255 192.192c-9.408-9.408-24.802-9.408-34.21 0l-53.282 53.282c-9.408 9.399-9.408 24.802 0 34.21l336.64 336.631c9.408 9.404 17.105 17.105 17.105 17.105 0 0.004 7.697 7.701 17.101 17.109l53.286 53.282c9.408 9.408 24.806 9.408 34.206 0l53.282-53.282c9.408-9.408 24.806-24.802 34.219-34.21l336.631-336.636c9.408-9.408 9.408-24.806 0-34.21l-53.282-53.282c-9.408-9.408-24.802-9.408-34.21 0l-336.64 336.627c-9.408 9.408-24.802 9.408-34.206 0l-336.64-336.627z" />
<glyph unicode="&#xe928;" glyph-name="double-angle-down" d="M865.745 873.643c9.408 9.408 24.802 9.408 34.21 0l53.282-53.282c9.408-9.408 9.408-24.802 0-34.21l-336.636-336.636c-9.408-9.399-17.109-17.101-17.109-17.101 0-0.009-7.697-7.701-17.101-17.109l-53.286-53.282c-9.404-9.408-24.802-9.408-34.21 0l-53.282 53.282c-9.408 9.408-24.802 24.802-34.214 34.21l-336.631 336.636c-9.408 9.408-9.408 24.802 0 34.21l53.282 53.282c9.408 9.408 24.802 9.408 34.21 0l336.636-336.627c9.408-9.408 24.802-9.408 34.21 0l336.64 336.627zM865.745 533.978c9.408 9.408 24.802 9.408 34.21 0l53.282-53.282c9.408-9.408 9.408-24.802 0-34.21l-336.636-336.636c-9.408-9.399-17.109-17.101-17.109-17.101 0-0.009-7.697-7.701-17.101-17.109l-53.286-53.282c-9.404-9.408-24.802-9.408-34.21 0l-53.282 53.282c-9.408 9.408-24.802 24.802-34.214 34.21l-336.631 336.636c-9.408 9.404-9.408 24.802 0 34.21l53.282 53.282c9.408 9.408 24.802 9.408 34.21 0l336.636-336.627c9.408-9.408 24.802-9.408 34.21 0l336.64 336.627z" />
<glyph unicode="&#xe929;" glyph-name="double-angle-left" d="M937.643 94.255c9.408-9.408 9.408-24.802 0-34.21l-53.282-53.282c-9.404-9.408-24.802-9.408-34.21 0l-336.631 336.636c-9.399 9.408-17.101 17.109-17.101 17.109-0.009 0-7.701 7.697-17.109 17.101l-53.282 53.286c-9.408 9.404-9.408 24.802 0 34.21l53.282 53.282c9.408 9.408 24.802 24.802 34.21 34.214l336.631 336.631c9.408 9.408 24.802 9.408 34.21 0l53.282-53.282c9.408-9.408 9.408-24.802 0-34.21l-336.623-336.636c-9.408-9.408-9.408-24.802 0-34.21l336.623-336.64zM597.978 94.255c9.404-9.408 9.404-24.802 0-34.21l-53.282-53.282c-9.408-9.408-24.802-9.408-34.21 0l-336.636 336.636c-9.399 9.408-17.101 17.109-17.101 17.109-0.009 0-7.701 7.697-17.109 17.101l-53.282 53.286c-9.408 9.404-9.408 24.802 0 34.21l53.282 53.282c9.408 9.408 24.802 24.802 34.21 34.214l336.636 336.631c9.404 9.408 24.802 9.408 34.21 0l53.282-53.282c9.404-9.408 9.404-24.802 0-34.21l-336.627-336.636c-9.408-9.408-9.408-24.802 0-34.21l336.627-336.64z" />
<glyph unicode="&#xe92a;" glyph-name="double-angle-right" d="M86.357 801.745c-9.408 9.408-9.408 24.802 0 34.21l53.282 53.282c9.404 9.408 24.802 9.408 34.21 0l336.631-336.636c9.399-9.408 17.101-17.109 17.101-17.109 0.009 0 7.701-7.697 17.109-17.101l53.282-53.286c9.408-9.404 9.408-24.802 0-34.21l-53.282-53.282c-9.408-9.408-24.802-24.802-34.21-34.214l-336.631-336.631c-9.408-9.408-24.802-9.408-34.21 0l-53.282 53.282c-9.408 9.408-9.408 24.802 0 34.21l336.623 336.636c9.408 9.408 9.408 24.802 0 34.21l-336.623 336.64zM426.022 801.745c-9.404 9.408-9.404 24.802 0 34.21l53.282 53.282c9.408 9.408 24.802 9.408 34.21 0l336.636-336.636c9.399-9.408 17.101-17.109 17.101-17.109 0.009 0 7.701-7.697 17.109-17.101l53.282-53.286c9.408-9.404 9.408-24.802 0-34.21l-53.282-53.282c-9.408-9.408-24.802-24.802-34.21-34.214l-336.636-336.631c-9.404-9.408-24.802-9.408-34.21 0l-53.282 53.282c-9.404 9.408-9.404 24.802 0 34.21l336.627 336.636c9.408 9.408 9.408 24.802 0 34.21l-336.627 336.64z" />
<glyph unicode="&#xe92b;" glyph-name="double-angle-up" d="M158.255 22.357c-9.408-9.408-24.802-9.408-34.21 0l-53.282 53.282c-9.408 9.404-9.408 24.802 0 34.21l336.636 336.631c9.408 9.399 17.109 17.101 17.109 17.101 0 0.009 7.697 7.701 17.101 17.109l53.286 53.282c9.404 9.408 24.802 9.408 34.21 0l53.282-53.282c9.408-9.408 24.802-24.802 34.214-34.21l336.631-336.631c9.408-9.408 9.408-24.802 0-34.21l-53.282-53.282c-9.408-9.408-24.802-9.408-34.21 0l-336.636 336.623c-9.408 9.408-24.802 9.408-34.21 0l-336.64-336.623zM158.255 362.022c-9.408-9.404-24.802-9.404-34.21 0l-53.282 53.282c-9.408 9.408-9.408 24.802 0 34.21l336.636 336.636c9.408 9.399 17.109 17.101 17.109 17.101 0 0.009 7.697 7.701 17.101 17.109l53.286 53.282c9.404 9.408 24.802 9.408 34.21 0l53.282-53.282c9.408-9.408 24.802-24.802 34.214-34.21l336.631-336.636c9.408-9.404 9.408-24.802 0-34.21l-53.282-53.282c-9.408-9.404-24.802-9.404-34.21 0l-336.636 336.627c-9.408 9.408-24.802 9.408-34.21 0l-336.64-336.627z" />
<glyph unicode="&#xe92c;" glyph-name="calendar" d="M926.562 828.945h-77.491v-104.486c0-20.041-16.247-36.284-36.284-36.284h-62.545c-20.036 0-36.284 16.243-36.284 36.284v104.486h-403.913v-104.486c0-20.041-16.247-36.284-36.284-36.284h-62.545c-20.036 0-36.284 16.243-36.284 36.284v104.486h-77.495c-20.032 0-36.284-16.243-36.284-36.284v-760.862c0-20.032 16.252-36.284 36.284-36.284h829.124c20.041 0 36.284 16.252 36.284 36.284v760.862c0 20.041-16.243 36.284-36.284 36.284zM908.446 77.7c0-17.613-14.285-31.902-31.902-31.902h-729.079c-17.626 0-31.91 14.289-31.91 31.902v569.233h792.892v-569.233zM218.244 705.246h47.701c15.283 0 27.674 12.386 27.674 27.669v139.9c0 15.283-12.39 27.669-27.674 27.669h-47.701c-15.279 0-27.665-12.386-27.665-27.669v-139.895c0-15.283 12.386-27.674 27.665-27.674zM757.867 705.246h47.701c15.283 0 27.669 12.386 27.669 27.674v139.895c0 15.283-12.386 27.669-27.669 27.669h-47.701c-15.283 0-27.669-12.39-27.669-27.669v-139.895c0-15.287 12.386-27.674 27.669-27.674zM537.335 579.968h123.733v-123.733h-123.733v123.733zM537.335 404.326h123.733v-123.738h-123.733v123.738zM537.335 228.681h123.733v-123.738h-123.733v123.738zM362.935 579.968h123.733v-123.733h-123.733v123.733zM362.935 404.326h123.733v-123.738h-123.733v123.738zM362.935 228.681h123.733v-123.738h-123.733v123.738zM711.735 579.968h123.733v-123.733h-123.733v123.733zM711.735 404.326h123.733v-123.738h-123.733v123.738zM188.531 404.326h123.733v-123.738h-123.733v123.738zM188.531 228.681h123.733v-123.738h-123.733v123.738z" />
<glyph unicode="&#xe92d;" glyph-name="load-and-register" d="M1007.655 447.996c0 124.772-50.752 237.913-132.704 319.865l0.149 0.149c-79.748 79.748-184.021 126.055-295.801 131.904-0.356 0.021-0.704 0.053-1.070 0.071-2.951 0.146-5.909 0.245-8.868 0.338-0.932 0.025-1.852 0.075-2.788 0.103-2.741 0.060-5.486 0.078-8.231 0.1-1.088 0.007-2.169 0.043-3.26 0.043v0c-120.836 0.004-234.443-47.036-319.908-132.444-0.007-0.007-0.018-0.018-0.025-0.025-0.004-0.004-0.007-0.007-0.014-0.014-0.018-0.018-0.043-0.043-0.068-0.068h0.004c-7.95-8.043-7.929-21.006 0.075-29.013s20.971-8.025 29.010-0.078v0c119.964 119.964 296.203 150.208 444.544 90.738 1.237-0.501 2.464-1.003 3.698-1.515 1.358-0.558 2.713-1.131 4.068-1.703 146.88-62.873 250.048-208.828 250.044-378.436 0.004-226.855-184.562-411.42-411.424-411.42-221.508 0-402.652 175.95-411.090 395.417l90.542 0.007-107.893 133.333-110.3-133.344 86.478 0.004c8.462-242.158 208.071-436.565 452.26-436.572 249.55-0.011 452.576 203.012 452.572 452.562zM843.008 641.070c-11.684 11.687-30.631 11.687-42.311 0l-287.029-272.537-155.246 145.593c-11.684 11.687-30.628 11.684-42.318 0-11.684-11.687-11.684-30.631 0-42.315l169.262-211.577c31.911-31.95 61.991 0.587 61.429 0l296.213 338.517c11.68 11.691 11.68 30.635 0 42.318z" />
<glyph unicode="&#xe92e;" glyph-name="download-pdf" d="M724.267 917.333h-544c-23.111 0-41.6-18.489-41.6-41.6v-855.467c0-23.111 18.489-41.6 41.6-41.6h663.467c23.111 0 41.6 18.489 41.6 41.6v736l-161.067 161.067zM392.533 160.711c-1.262-13.557-6.044-26.546-13.867-37.692-4.267-6.4-9.6-11.374-16-14.93s-13.156-7.111-20.978-9.6c-2.485-1.067-4.974-1.422-7.467-1.778l-7.822-1.422h-3.911c-1.422 0-2.489 0-3.915-0.711h-49.778c-3.556 0-5.689-0.356-7.467-1.778-2.133-1.419-3.556-4.263-3.556-8.178v-54.4l0.356-8.533c0-2.844-0.356-5.333-1.422-7.111-0.711-1.419-2.844-2.844-6.044-3.556-1.422-0.356-2.844-0.708-4.622-0.356h-24.178l-7.111 0.356c-1.778 0-3.556 0.711-4.978 1.778-1.422 1.070-1.778 2.848-2.133 5.333l-0.356 7.111v206.222c0 4.267 0 7.111 1.422 8.889 0.711 1.422 2.489 2.489 4.978 3.2h1.422l1.422 0.356h100.267l5.692-0.356h1.422l3.556-0.711c1.422 0 2.848 0 3.556-0.711h3.2l2.844-0.708 10.667-3.556c4.69-1.269 9.134-3.314 13.156-6.044l3.911-2.489 2.848-2.133 2.844-2.489 2.133-2.137 6.4-7.819c4.917-7.001 8.53-14.83 10.667-23.111 2.485-8.537 3.552-18.848 2.841-30.937v0zM631.822 125.156v-2.137c-0.032-2.855-0.267-5.707-0.711-8.53-0.416-1.134-0.54-2.357-0.356-3.556v-3.2c-0.466-2.35-0.818-4.725-1.070-7.111-2.908-9.124-5.401-18.379-7.467-27.733-3.563-8.843-8.224-17.209-13.867-24.889-8.409-11.797-19.826-21.131-33.067-27.022-7.122-3.022-14.5-5.404-22.044-7.111l-7.111-1.422-3.196-0.356-2.844-0.359c-0.939-0.192-1.909-0.192-2.848 0l-2.844-0.356h-1.778l-2.133-0.359c-1.778-0.356-3.915-0.708-6.4-0.356h-83.196l-9.244 0.711c-2.489 0.356-4.267 1.778-5.692 4.622l-0.711 7.822v209.422c0 2.848 0.359 5.333 1.422 7.111 1.067 1.422 2.489 2.489 4.978 3.556h102.4c1.067-0.356 2.489-0.708 3.556-0.356s2.489 0 3.556-0.711l3.556-0.356c4.135-0.779 8.284-1.49 12.444-2.137 3.556-0.708 6.044-1.419 8.53-2.844l7.111-2.844c2.489-0.711 4.978-1.778 7.111-3.2l14.933-10.308 2.137-1.778c2.133-1.778 3.911-3.556 5.689-6.044l3.2-2.489 7.111-9.952c6.094-9.543 10.652-19.979 13.511-30.933 1.419-2.844 2.133-5.689 2.133-8.889l1.778-9.244v-4.978c0.711-1.419 0.711-2.844 0.711-4.267l0.356-3.911v-6.4c0.228-2.364 0.228-4.747 0-7.111h0.359zM831.644 212.622v-4.267l-1.422-3.556c0-0.708-0.711-1.419-1.778-2.133-1.778-1.422-4.622-1.778-8.889-1.778h-86.756c-4.974 0.356-8.53 0-10.667-1.422-1.419-1.067-2.485-2.485-3.556-4.974v-39.111l1.422-4.978c0.711-1.419 1.778-2.489 3.556-2.844 1.067-0.711 2.489-0.711 3.556-1.067h62.933c4.38-0.242 8.775-0.242 13.156 0l6.041-0.359c1.778 0 3.556-0.708 4.267-1.419 2.137-1.422 3.2-4.267 3.2-8.533-0.434-7.698-0.668-15.403-0.711-23.111-0.711-2.489-2.133-3.911-3.556-4.974-1.422-0.711-4.622-1.070-8.889-1.070h-76.444c-3.911 0-6.4-1.778-7.467-4.622-0.466-0.615-0.711-1.365-0.711-2.133l-0.352-2.137v-74.667c0-4.263 0-7.467-1.419-9.596-0.711-1.070-1.422-1.778-2.489-2.137l-3.556-1.067c-1.422-0.356-2.844-0.711-4.622 0h-30.937c-2.133 0-3.556 0.711-4.978 1.778-1.778 1.422-2.485 2.844-2.485 5.333v202.667l-0.359 10.667c0 4.267 0.359 7.111 1.422 8.889 1.067 1.422 2.489 2.489 4.974 3.556h150.759c1.778-0.711 3.556-1.422 4.622-2.489l1.778-4.622 0.359-6.044c0.217-4.501 0.217-9.010 0-13.511v-4.267h-0.004zM842.667 288h-661.333v586.667h501.333v-118.4c0-23.111 18.489-41.6 41.6-41.6h118.4v-426.667zM342.4 179.2c-1.419 4.622-2.844 8.53-4.974 11.374-2.137 2.848-4.978 5.333-8.889 7.822-3.2 2.137-7.111 3.556-12.089 4.267-4.622 1.067-9.956 1.778-15.289 2.133-12.565 0.54-25.152 0.306-37.689-0.708-2.133-1.070-3.556-2.137-4.267-3.915s-1.067-4.267-1.067-7.111v-47.641c0-2.848 0.356-5.692 1.422-7.47 1.067-1.419 2.133-2.489 3.911-2.844l6.044-1.422h14.222c11.378 0 22.044 0.711 31.644 1.778 8.555 0.693 16.427 4.953 21.689 11.737 2.3 4.612 4.32 9.362 6.044 14.222 0.96 5.909 0.718 11.961-0.715 17.778zM580.622 135.822l-1.067 6.4c0 2.133 0 3.911-0.711 5.689-0.356 1.070-0.711 2.137-0.356 3.556 0 0.711 0 1.778-0.711 2.848l-2.844 9.956c-3.406 8.491-8.629 16.132-15.289 22.4-7.748 6.816-17.22 11.367-27.378 13.156-3.186 0.48-6.389 0.836-9.6 1.067-0.821 0.146-1.668 0.146-2.489 0l-2.489 0.356h-31.644c-0.804 0.302-1.689 0.302-2.489 0l-3.2-1.419c-1.067 0-1.778-1.067-2.485-2.137-1.070-1.067-1.422-2.485-1.422-4.622v-6.4c0.21-5.924 0.21-11.854 0-17.778v-91.378l-0.356-4.267 0.356-3.911v-7.822c0-1.419 0.711-2.489 1.067-3.556 1.422-2.844 3.556-4.267 7.47-4.267 12.437-0.604 24.896-0.604 37.333 0 8.889 0 16 1.422 22.4 3.556 7.822 3.556 14.222 7.822 18.844 13.156 7.9 9.408 13.284 20.661 15.644 32.711v2.844l0.708 4.978c0 1.419 0 3.556 0.711 4.974v3.556l0.711 4.978-0.711 5.333v6.044h-0.004zM657.067 526.933l-123.733-123.378v396.444c0 11.78-9.554 21.333-21.333 21.333s-21.333-9.554-21.333-21.333v-396.444l-123.733 123.378c-7.068 9.426-20.441 11.335-29.867 4.267s-11.335-20.441-4.267-29.867c1.216-1.618 2.652-3.054 4.267-4.267l160-160c8.295-8.128 21.572-8.128 29.867 0l160 160c9.426 7.068 11.335 20.441 4.267 29.867s-20.444 11.335-29.867 4.267c-1.618-1.212-3.054-2.649-4.267-4.267v0z" />
<glyph unicode="&#xe92f;" glyph-name="download-csv" d="M724.267 917.333h-544c-23.111 0-41.6-18.489-41.6-41.6v-855.467c0-23.111 18.489-41.6 41.6-41.6h663.467c23.111 0 41.6 18.489 41.6 41.6v736l-161.067 161.067zM408.889 86.756l-2.133-8.533-2.848-9.6-3.911-8.889c-0.971-1.582-1.806-3.246-2.489-4.974l-2.841-4.981c-13.589-20.964-34.948-35.669-59.378-40.889l-10.667-2.13h-2.844c-2.987-0.107-5.963-0.466-8.889-1.070h-11.022c-2.137 0-3.556 0-5.692 0.711l-3.196 0.356-9.244 1.422-6.4 1.422c-6.162 1.408-12.132 3.556-17.778 6.4-25.465 10.436-45.518 30.876-55.467 56.533-6.059 9.259-8.928 20.245-8.178 31.289-0.21 3.115-0.683 6.208-1.422 9.244v8.533c-0.711 1.067-0.711 2.844-0.711 4.974l0.356 4.626v7.111l1.067 5.333c0.476 11.46 2.88 22.756 7.111 33.419 2.432 5.536 5.038 10.99 7.822 16.359 4.117 7.285 8.878 14.183 14.222 20.622l3.911 3.911c12.594 12.949 28.437 22.283 45.867 27.026 9.22 2.297 18.617 3.84 28.089 4.622h1.778c22.756 0 41.6-3.556 56.533-11.733 18.126-10.052 32.572-25.621 41.244-44.444 2.194-5.792 3.979-11.737 5.333-17.778 0.711-2.137 0.356-3.915 0-5.692-0.391-1.305-1.5-2.276-2.844-2.489l-3.915-1.067h-2.485c-1.422-0.356-2.848-0.711-4.626-0.356-3.904 0.302-7.826 0.302-11.733 0-5.099-0.284-10.212-0.164-15.289 0.356-2.133 0.359-3.556 1.067-4.978 1.778-1.419 1.422-2.844 3.556-3.556 6.044-3.673 9.902-10.56 18.29-19.556 23.822-4.974 2.844-9.956 5.333-15.641 7.111-3.556 1.067-8.178 1.778-14.222 1.778-6.4 0.16-12.779-0.804-18.844-2.844-1.422 0-2.848-0.711-4.626-1.422-14.222-5.778-25.508-17.063-31.289-31.289l-2.844-8.178c-1.038-4.423-2.226-8.814-3.556-13.156-1.525-9.525-2.24-19.157-2.133-28.804v-2.844c0.356-1.067 0.711-2.133 0.356-3.556 0-1.067 0-2.133 0.711-3.196 0-1.070 0-2.848 0.711-4.978 0.825-4.292 1.778-8.562 2.844-12.8 2.844-9.248 7.111-17.070 11.733-23.47s11.022-11.733 18.844-16l7.47-2.489c3.904-1.095 7.812-2.158 11.733-3.196h5.689l4.267-0.711 4.267 0.711h2.844l7.467 1.419c7.374 1.696 14.14 5.387 19.556 10.667 3.556 3.915 7.111 8.181 9.6 12.804l3.556 7.111 2.844 7.822 1.778 6.4c0.711 2.133 2.137 3.556 4.267 4.622 1.422 0.711 3.2 0.711 4.978 0.711h31.641c2.137 0 3.556-0.359 4.978-1.422 1.778-1.067 2.489-2.844 2.489-4.974 0.004-2.492 0.004-4.981-0.708-7.115v0zM627.2 78.222v-6.044c-0.974-4.476-1.806-8.981-2.489-13.511-2.56-7.104-5.899-13.899-9.956-20.267-0.743-1.017-1.575-1.97-2.489-2.844l-2.137-2.489c-2.272-2.713-4.903-5.106-7.819-7.111-5.803-4.537-12.128-8.359-18.848-11.378l-12.8-4.622c-2.844-1.067-6.044-1.778-9.244-2.133-4.779-0.256-9.532-0.85-14.222-1.778-1.422 0-2.848 0-4.267-0.711h-2.485c-0.59-0.036-1.188-0.036-1.778 0h-1.778c-1.892-0.167-3.797-0.167-5.689 0-1.895-0.167-3.797-0.167-5.692 0h-3.196c-1.422 0.711-3.2 0.711-4.626 0.711l-4.622 0.356c-1.916 0.018-3.826 0.256-5.689 0.711l-8.178 1.778c-2.848 0-5.692 1.067-7.822 1.778-10.667 3.556-20.267 7.822-28.444 13.156-14.080 9.301-24.213 23.488-28.444 39.822l-0.708 3.911c0 1.422 0 2.844-0.711 4.267l-1.067 6.4c0 2.489 0 4.267 1.422 5.689 1.067 1.778 2.485 2.848 4.622 3.2l7.111 0.356h26.308c1.778 0 3.556 0 4.978-1.067 2.489-1.067 3.911-2.844 4.267-5.333s1.419-4.974 2.489-7.467c0.708-2.844 1.778-4.978 3.196-7.111l4.267-6.4 3.556-3.556 3.911-2.848c4.978-3.196 10.667-5.689 17.778-7.819l4.267-0.359 4.978-0.711h1.419c1.778-0.708 4.267-0.708 7.111-0.708 3.2 0 5.692 0 7.111 0.708h3.556l7.111 1.422c7.111 2.133 13.156 4.622 17.422 7.822 4.267 3.556 7.111 8.889 9.244 16.356v5.333c0 2.137-0.708 3.556-1.067 4.622-2.546 7.090-7.968 12.775-14.933 15.644-3.196 2.133-7.111 3.556-10.667 4.622-7.172 1.927-14.286 4.060-21.333 6.4l-10.667 2.489c-4.352 0.857-8.629 2.044-12.8 3.556-0.711 0-1.422 0-2.133 0.711-3.246 0.644-6.45 1.472-9.6 2.489-9.191 3.47-18.212 7.385-27.026 11.733-5.333 3.556-9.596 7.111-14.222 11.733-5.632 5.824-9.568 13.081-11.374 20.978l-1.778 6.752c-1.18 5.852-1.422 11.854-0.711 17.778l0.356 3.556 1.778 7.111 1.778 6.404c3.556 7.819 7.47 14.222 12.804 19.556 4.974 5.333 10.667 10.308 17.778 14.222 4.263 2.844 8.889 4.974 14.222 6.4 7.374 2.133 14.852 3.915 22.4 5.333 1.778 0 3.911 0 6.044 0.711h6.041c42.311 1.067 71.111-11.737 87.47-37.333 2.133-3.556 3.556-7.111 4.974-10.667l3.556-12.089v-6.044c0-2.489 0-4.267-1.067-5.333-1.166-1.39-2.82-2.279-4.622-2.489l-6.4-0.356h-26.667c-2.137 0-3.556 0-4.978 0.711-2.489 1.067-4.267 2.844-4.974 5.333-1.244 5.031-3.282 9.838-6.044 14.222-1.422 2.133-3.2 3.911-4.978 5.333-2.844 2.133-6.044 3.911-8.889 5.333-10.745 3.609-22.13 4.939-33.419 3.911-8.313-0.821-16.089-4.462-22.044-10.308-2.489-2.848-4.622-7.111-5.692-13.156v-4.978c0-1.778 0-3.556 0.711-4.267 1.116-4.057 3.637-7.584 7.111-9.956 8.26-4.807 17.276-8.171 26.667-9.956l17.778-4.978c17.518-4.203 34.741-9.547 51.556-16l15.289-10.667c4.267-3.911 8.181-8.889 11.737-14.578 1.067-1.778 2.133-3.556 2.844-6.044 0.964-3.232 2.027-6.436 3.196-9.6 0.711-3.556 1.070-8.178 1.070-13.152 0.708-1.070 0.708-2.137 0-3.556v0.352zM841.6 236.444l-1.778-7.111c-4.37-10.258-7.932-20.836-10.667-31.644l-1.422-3.556-1.067-4.263c-1.845-4.672-3.502-9.419-4.978-14.222l-4.622-14.222c-16.352-48.32-32.587-96.672-48.711-145.070-1.067-2.485-3.556-4.263-6.4-4.974l-6.044-0.711h-37.333c-2.844 0-4.974 0.711-7.111 1.778-2.133 1.067-3.556 3.2-4.622 6.044-1.806 7.36-4.060 14.603-6.752 21.689l-4.267 14.222c-4.978 13.511-9.6 27.378-13.867 41.248-6.123 20.27-12.644 40.423-19.556 60.444-2.873 10.332-6.19 20.533-9.956 30.578-5.429 17.916-10.528 35.936-15.289 54.044 0.711 1.419 2.133 2.489 4.267 2.844h36.622c2.844 0 4.622 0 6.044-1.422 2.133-1.067 3.556-2.844 4.263-4.974 0.359-2.489 1.422-4.978 2.137-7.111 3.321-8.213 6.052-16.651 8.178-25.248 11.221-34.386 22.126-68.875 32.711-103.467l1.778-6.044c0.359-2.133 1.778-3.556 2.844-4.974 0-0.711 0.356-0.711 0.711-1.070 0.359 0 0.711 0 1.067-0.708 2.489 0 4.267 1.067 4.978 3.196 2.187 6.539 4.441 13.060 6.752 19.556l4.267 14.933c9.888 28.508 19.253 57.195 28.089 86.044 2.731 8.569 5.575 17.106 8.53 25.6 0.711 1.778 1.778 3.556 3.556 4.263 1.422 1.070 3.2 1.778 5.333 1.778h34.489c2.133 0 3.556-0.356 5.333-1.419 2.133-1.067 2.844-2.844 2.133-6.044h0.359zM842.667 288h-661.333v586.667h501.333v-118.4c0-23.111 18.489-41.6 41.6-41.6h118.4v-426.667zM657.067 526.933l-123.733-123.378v396.444c0 11.78-9.554 21.333-21.333 21.333s-21.333-9.554-21.333-21.333v-396.444l-123.733 123.378c-7.068 9.426-20.441 11.335-29.867 4.267s-11.335-20.444-4.267-29.867c1.216-1.618 2.652-3.054 4.267-4.267l160-160c8.295-8.128 21.572-8.128 29.867 0l160 160c9.426 7.068 11.335 20.441 4.267 29.867s-20.444 11.335-29.867 4.267c-1.618-1.212-3.054-2.652-4.267-4.267v0z" />
<glyph unicode="&#xe930;" glyph-name="coin-euro" d="M936.676 227.239c0.565 1.465 1.060 2.955 1.604 4.427-0.523-0.789-1.074-1.564-1.604-2.35v-2.076zM512 901.735c-258.631 0-469.042-182.667-469.042-407.186 0-15.744 0-77.34 0-93.084 0-224.53 210.411-407.196 469.042-407.196s469.042 182.667 469.042 407.196c0 15.744 0 77.34 0 93.084 0 224.519-210.411 407.186-469.042 407.186zM105.447 291.641c11.488-17.276 24.402-33.756 38.592-49.326v-24.814c-15.936 23.204-28.924 48.046-38.592 74.14zM214.809 140.352v39.403c12.668-9.035 25.906-17.486 39.63-25.348v-43.243c-13.902 9.042-27.132 18.791-39.63 29.188zM325.209 73.831v47.243c12.924-4.896 26.14-9.291 39.63-13.173v-48.576c-13.547 4.27-26.763 9.124-39.63 14.507zM435.612 42.802v49.98c13.042-1.867 26.254-3.285 39.63-4.188v-50.293c-13.394 0.988-26.617 2.482-39.63 4.501zM546.009 38.094v50.332c13.372 0.832 26.592 2.158 39.63 3.957v-49.995c-13.017-1.941-26.236-3.385-39.63-4.295zM656.405 58.475v48.647c13.486 3.797 26.709 8.096 39.63 12.903v-47.346c-12.86-5.287-26.091-10.023-39.63-14.204zM766.809 109.365v43.474c13.721 7.737 26.944 16.089 39.63 24.992v-39.78c-12.508-10.222-25.742-19.812-39.63-28.686zM916.843 287.058c-10.044-25.909-23.388-50.549-39.63-73.529v25.82c14.571 15.687 27.829 32.32 39.63 49.785 0.53 0.786 1.081 1.561 1.604 2.354-0.544-1.472-1.038-2.965-1.604-4.43zM512 130.016c-235.104 0-426.375 163.527-426.375 364.53 0 200.999 191.271 364.519 426.375 364.519s426.375-163.52 426.375-364.519c0-200.999-191.271-364.53-426.375-364.53zM360.885 518.158h-20.057c-6.347 0-11.445 1.931-15.3 5.788-4.757 4.711-7.14 10.61-7.14 17.685 0 8.569 3.282 15.111 9.86 19.616 3.623 2.357 7.819 3.538 12.58 3.538h26.859c11.1 50.802 31.73 90.244 61.874 118.325 34.898 32.58 78.752 48.875 131.57 48.875 29.234 0 57.223-7.932 83.968-23.794 19.719-11.787 34.677-25.081 44.875-39.872 6.798-9.646 10.197-18.439 10.197-26.368 0-7.068-2.837-12.86-8.498-17.362-6.35-5.145-13.38-7.716-21.084-7.716-11.104 0-21.074 7.499-29.916 22.507-5.892 10.069-14.958 19.076-27.193 27.008-15.186 9.856-32.523 14.791-52.014 14.791-45.106 0-80.007-18.119-104.708-54.34-11.335-16.512-19.836-37.195-25.497-62.055h178.14c5.436 0 10.201-1.611 14.283-4.825 5.44-4.501 8.16-10.61 8.16-18.325 0-9.646-3.744-16.508-11.221-20.576-3.399-1.931-7.14-2.894-11.218-2.894h-186.638c-1.138-6.866-1.703-14.581-1.703-23.154 0-12.217 1.020-23.040 3.061-32.473h185.28c5.212 0 9.742-1.504 13.596-4.505 5.892-4.935 8.843-11.364 8.843-19.292 0-9.22-3.744-16.075-11.221-20.58-3.175-1.927-6.916-2.891-11.218-2.891h-175.42c18.13-76.32 58.812-114.464 122.044-114.464 38.983 0 70.485 18.855 94.51 56.59 4.761 7.716 12.121 11.57 22.101 11.57 8.608 0 16.32-2.784 23.118-8.363 6.567-5.362 9.856-11.897 9.856-19.612 0-8.999-4.878-19.612-14.62-31.833-31.278-39.876-76.491-59.804-135.641-59.804-98.82 0-160.804 55.307-185.963 165.916h-28.558c-5.44 0-9.977 1.493-13.6 4.501-5.895 4.928-8.839 11.257-8.839 18.972 0 9.426 3.623 16.398 10.88 20.9 3.399 1.931 7.253 2.894 11.559 2.894h20.74c-0.679 8.363-1.020 19.292-1.020 32.796-0.004 8.569 0.107 16.178 0.334 22.823z" />
<glyph unicode="&#xe931;" glyph-name="coin-yen" d="M931.132 235.826c0.565 1.465 1.060 2.955 1.604 4.427-0.523-0.789-1.074-1.564-1.604-2.35v-2.076zM512 901.728c-258.631 0-469.042-182.66-469.042-407.186 0-15.737 0-77.34 0-93.081 0-224.526 210.411-407.193 469.042-407.193s469.042 182.667 469.042 407.193c0 15.74 0 77.344 0 93.081 0 224.526-210.411 407.186-469.042 407.186zM105.447 291.641c11.488-17.276 24.402-33.756 38.592-49.326v-24.814c-15.936 23.204-28.924 48.046-38.592 74.14zM214.809 140.352v39.403c12.668-9.035 25.906-17.486 39.63-25.348v-43.243c-13.902 9.042-27.132 18.791-39.63 29.188zM325.209 73.831v47.243c12.924-4.896 26.14-9.291 39.63-13.173v-48.576c-13.547 4.27-26.763 9.124-39.63 14.507zM435.612 42.802v49.98c13.042-1.867 26.254-3.285 39.63-4.188v-50.293c-13.394 0.988-26.617 2.482-39.63 4.501zM546.009 38.094v50.332c13.372 0.832 26.592 2.158 39.63 3.957v-49.995c-13.017-1.941-26.236-3.385-39.63-4.295zM656.405 58.475v48.647c13.486 3.797 26.709 8.096 39.63 12.903v-47.346c-12.86-5.287-26.091-10.023-39.63-14.204zM766.809 109.365v43.474c13.721 7.737 26.944 16.089 39.63 24.992v-39.78c-12.508-10.222-25.742-19.812-39.63-28.686zM916.843 287.058c-10.044-25.909-23.388-50.549-39.63-73.529v25.82c14.571 15.687 27.829 32.32 39.63 49.785 0.53 0.786 1.081 1.561 1.604 2.354-0.544-1.472-1.038-2.965-1.604-4.43zM512 130.016c-235.104 0-426.375 163.527-426.375 364.523 0 200.999 191.271 364.519 426.375 364.519s426.375-163.52 426.375-364.519c0-200.992-191.271-364.523-426.375-364.523zM450.98 535.918l-115.726 143.84c-3.74 4.857-5.611 10.386-5.611 16.572 0 10.155 4.085 18.005 12.274 23.531 6.311 4.416 12.74 6.628 19.289 6.628 8.647 0 16.011-3.975 22.094-11.929l128.704-170.354 128.708 170.354c6.073 7.954 13.44 11.929 22.091 11.929 6.546 0 12.978-2.212 19.289-6.628 8.181-5.525 12.274-13.376 12.274-23.531 0-6.414-1.87-11.929-5.611-16.572l-115.73-143.84h102.756c5.611 0 10.517-1.653 14.727-4.967 5.611-4.644 8.416-10.937 8.416-18.891 0-9.724-3.858-16.793-11.573-21.212-3.275-1.991-7.136-2.983-11.57-2.983h-134.318v-63.964h134.318c5.372 0 10.044-1.55 14.027-4.64 6.073-5.088 9.113-11.716 9.113-19.886 0-9.28-3.858-16.359-11.573-21.212-3.275-1.991-7.136-2.987-11.57-2.987h-134.318v-108.708c0-7.289-2.805-13.422-8.416-18.389-5.611-4.974-12.626-7.46-21.042-7.46-10.752 0-19.058 3.755-24.9 11.264-3.040 3.975-4.558 8.836-4.558 14.585v108.708h-134.315c-5.611 0-10.293 1.547-14.027 4.647-6.084 5.081-9.116 11.598-9.116 19.552 0 9.717 3.737 16.9 11.221 21.543 3.506 1.988 7.481 2.983 11.925 2.983h134.315v63.964h-134.315c-6.311 0-11.573 1.991-15.78 5.966-4.91 4.857-7.364 10.937-7.364 18.229 0 8.832 3.506 15.577 10.521 20.22 3.506 2.428 7.716 3.641 12.626 3.641h102.745z" />
<glyph unicode="&#xe932;" glyph-name="table-remove-row" d="M32 714.368v110.222c0 50.972 41.468 92.444 92.444 92.444h775.111c50.976 0 92.444-41.472 92.444-92.444v-110.222c0-50.972-41.468-92.444-92.444-92.444h-775.111c-50.972 0-92.444 41.472-92.444 92.444zM949.333 824.594c0 27.449-22.325 49.778-49.778 49.778h-775.111c-27.449 0-49.778-22.329-49.778-49.778v-110.222c0-27.445 22.329-49.778 49.778-49.778h775.111c27.452 0 49.778 22.332 49.778 49.778v110.222zM512 469.632c-135.278 0-245.333-110.055-245.333-245.333s110.059-245.333 245.333-245.333c135.278 0 245.333 110.055 245.333 245.333s-110.059 245.333-245.333 245.333zM653.333 202.965h-282.667c-11.78 0-21.333 9.55-21.333 21.333 0 11.78 9.554 21.333 21.333 21.333h282.667c11.783 0 21.333-9.557 21.333-21.333 0-11.783-9.55-21.333-21.333-21.333z" />
<glyph unicode="&#xe933;" glyph-name="receipt-printer" d="M913.778-53.333h-803.556c-19.605 0-35.556 15.95-35.556 35.556v327.111h874.667v-327.111c0-19.605-15.95-35.556-35.556-35.556zM117.333-10.667h789.333v277.333h-789.333v-277.333zM305.778 99.556h-99.556c-19.605 0-35.556 15.95-35.556 35.556v67.556c0 19.605 15.95 35.556 35.556 35.556h99.556c19.605 0 35.556-15.95 35.556-35.556v-67.556c0-19.605-15.95-35.556-35.556-35.556zM213.333 142.222h85.333v53.333h-85.333v-53.333zM913.778 661.333h-124.444v147.502l-140.501 140.498h-414.165v-288h-124.444c-19.605 0-35.556-15.95-35.556-35.556v-280.889h874.667v280.889c0 19.605-15.95 35.556-35.556 35.556zM277.333 618.667v288h341.333v-128h128v-277.333h-469.333v117.333zM906.667 387.556h-789.333v231.111h117.333v-160h554.667v160h117.333v-231.111z" />
<glyph unicode="&#xe934;" glyph-name="check" d="M976.686 754.795c-15.684 15.684-41.102 15.684-56.782 0l-529.728-529.724-286.080 286.084c-15.68 15.676-41.106 15.676-56.775 0-15.684-15.687-15.684-41.106 0-56.782l313.17-313.166c7.836-7.844 18.116-11.762 28.388-11.762 7.207 0 14.404 1.973 20.764 5.831 4.715 1.963 9.145 4.846 12.974 8.676l554.069 554.069c15.676 15.676 15.676 41.099 0 56.775z" />
<glyph unicode="&#xe935;" glyph-name="remove" d="M31.492 545.523h961.020v-195.038h-961.020v195.038z" />
<glyph unicode="&#xe936;" glyph-name="add" d="M912 494.222h-353.778v353.778c0 25.529-20.693 46.222-46.222 46.222s-46.222-20.693-46.222-46.222v-353.778h-353.778c-25.529 0-46.222-20.693-46.222-46.222s20.693-46.222 46.222-46.222h353.778v-353.778c0-25.529 20.693-46.222 46.222-46.222s46.222 20.693 46.222 46.222v353.778h353.778c25.529 0 46.222 20.693 46.222 46.222s-20.693 46.222-46.222 46.222z" />
<glyph unicode="&#xe937;" glyph-name="barcode" d="M133.468-1.024v20.068h30.375v89.152h-25.031v15.374c12.501 2.439 22.969 6.126 31.406 11.061h18.283v-115.598h26.72v-20.068l-81.753 0.011zM235.186-1.024v14.254c22.183 21.5 38.002 38.002 47.438 49.5 9.376 11.495 14.062 22.027 14.062 31.591 0 7.25-1.97 12.967-5.906 17.159-3.936 4.188-9.436 6.286-16.501 6.286-8.565 0-17.38-5.031-26.439-15.093l-13.689 13.692c6.564 7.001 13.22 12.224 19.968 15.652 6.748 3.492 14.532 5.259 23.342 5.259 12.939 0 23.31-3.78 31.125-11.342 7.812-7.563 11.719-17.657 11.719-30.283 0-5.813-1.159-11.751-3.47-17.813-2.379-6.062-6.187-12.633-11.438-19.687-5.252-7.061-10.219-13.28-14.905-18.66-4.686-5.376-11.157-12.402-19.406-21.099 10.933 0.999 18.468 1.5 22.592 1.5h33.28v-20.907l-91.772-0.011zM387.712-3.556c-19.186 0-34.535 6.375-46.030 19.125l11.719 15.844c9.689-9.938 20.402-14.905 32.156-14.905 7.371 0 13.408 1.852 18.094 5.54 4.626 3.684 6.937 8.658 6.937 14.898 0 7.563-3.001 13.28-8.999 17.156-6.002 3.932-16.313 5.906-30.937 5.906v17.906c23.627 0 35.438 7.25 35.438 21.746 0 5.692-1.781 10.13-5.344 13.312s-8.473 4.786-14.72 4.786c-8.942 0-18.034-4.249-27.282-12.75l-12.658 15.186c12.811 11.367 26.404 17.063 40.782 17.063 13.252 0 23.872-3.186 31.876-9.561 8.064-6.311 12.092-15.093 12.092-26.343 0-14.62-7.911-24.996-23.719-31.125v-0.843c8.373-2.251 15.186-6.283 20.437-12.089 5.188-5.746 7.78-12.964 7.78-21.66 0-11.929-4.562-21.465-13.689-28.59-9.124-7.068-20.434-10.599-33.934-10.599zM634.126-1.024v34.969h-59.904v16.686l53.714 84h29.252v-81.66h17.063v-19.036h-17.063v-34.969l-23.061 0.011zM598.507 52.971h35.627v30.66c0 5.557 0.373 14.965 1.124 28.22h-0.846c-0.562-1.255-4.277-8.313-11.154-21.188l-24.75-37.692zM731.161-3.556c-18.375 0-33.778 6.251-46.222 18.748l11.25 15.751c10.251-9.689 20.846-14.5 31.783-14.439 7.687 0 14.002 2.304 18.937 6.93 4.939 4.633 7.374 10.972 7.314 19.036 0 7.932-2.286 14.155-6.848 18.66-4.562 4.501-10.592 6.741-18.091 6.741-4.124 0-7.687-0.555-10.688-1.696-3.001-1.12-6.688-3.125-11.061-6.002l-11.723 7.499 4.036 66.937h72.562v-20.626h-51.285l-2.716-32.91c6.251 3.001 12.217 4.501 17.899 4.501 12.37 0 22.592-3.591 30.66-10.777s12.068-17.749 12-31.687c0-14.251-4.683-25.589-14.062-34.027-9.429-8.42-20.679-12.64-33.742-12.64zM847.876-3.556c-14.251 0-26.027 5.589-35.339 16.786-9.308 11.246-13.973 27.751-13.973 49.5 0 24.75 5.099 43.339 15.285 55.78s22.887 18.688 38.062 18.745c14.5 0 26.596-5.12 36.277-15.374l-13.216-15.001c-2.439 3.001-5.66 5.465-9.66 7.403s-7.964 2.905-11.904 2.905c-20.313 0-30.972-16.718-31.972-50.155 3.812 4.999 8.437 8.91 13.874 11.723 5.376 2.88 10.564 4.313 15.563 4.313 12.064 0 21.689-3.563 28.875-10.688s10.78-17.589 10.78-31.41c0-13.252-4.121-23.961-12.37-32.153-8.249-8.249-18.347-12.373-30.283-12.373zM847.41 15.193c5.813 0 10.652 2.283 14.528 6.841 3.812 4.562 5.721 10.88 5.721 18.937 0 7.932-1.852 13.973-5.536 18.098-3.687 4.064-8.942 6.062-15.755 6.002-9.12 0-17.259-5.188-24.37-15.563 2.439-22.876 10.912-34.315 25.412-34.315zM480 757.333h64v-758.357h-64v758.357zM317.038 757.333h96v-594.24h-96v594.24zM773.931 757.333h64v-594.24h-64v594.24zM610.965 757.333h96v-594.24h-96v594.24zM186.073 757.333h64v-594.24h-64v594.24zM920.889 757.333h64v-758.357h-64v758.357zM39.111 757.333h64v-758.357h-64v758.357z" />
</font>
</defs>
</svg>
